.
Авторизация | Регистрация
Хочешь лучшие торренты? Добавь свой email!
Добавить
» » Убежище / Hideaway (1995) HDTVRip от New-Team | P скачать торрент бесплатно




    Убежище / Hideaway (1995) HDTVRip от New-Team | P скачать торрент бесплатно

    Опубликовал: Админ | Дата: 27-02-2015, 11:10 | Просмотров: 204


    Снималось в: США
    Создали в: TriStar Pictures
    Категория жанра: ужасы, фэнтези, триллер
    Создали в: 1995
    Время просмотра: 01:41:35

    Перевод текста: Профессиональный (многоголосый закадровый)
    Оригинальная аудиодорожка: нет
    Субтитры подготовлены: нет

    Главный режиссер: Бретт Леонард / Brett Leonard

    Актеры:
    Джефф Голдблюм, Кристина Лахти, Алисия Силверстоун, Джереми Систо, Альфред Молина, Рэй Доун Чонг, Кеннет Уэлш, Сьюзи Йоахим, Ширли Бродерик, Том МакБет, Джоэли Коллинз, Роджер Р. Кросс, Майкл Джеймс МакДональд, Дон С. Дэвис, Ребекка Тулан, Хиро Канагава, Джейми Нокс, Норма Жан Уик, Тиффани Фостер, Мара Дуронслет, Айрис Куинн, Наташа Морли, Сара Стрэйндж...

    Сюжет:
    Сын зверски убивает свою мать и сестру. Любящий муж и отец гибнет в автокатастрофе. Врачи открывают способ воскрешать мертвых. Между этими событиями есть мистическая связь. Ее тайна сокрыта в зловещем убежище. Убежище, где таится само Зло…



    Исходник: HDTV 1080i
    Тип релиза: HDTVRip
    Контейнер: AVI

    Информация о видео: 656x368 (16:9), 25 fps, XviD ~ 888 kbps avg, 0.147 bit/pixel
    Информация о звуке: 48 kHz, MP3 2.0, 128 kbps

    Раздача от:
    MediaInfo

    Общее
    Полное имя : Ubezhishhe.1995.HDTVRip-745_New-team_by_AVP_Studio.avi
    Формат : AVI
    Формат/Информация : Audio Video Interleave
    Размер файла : 745 Мбайт
    Продолжительность : 1 ч. 41 м.
    Общий поток : 1025 Кбит/сек
    Программа кодирования : VirtualDubModRus 1.5.10.2 (build 2542/release)
    Библиотека кодирования : VirtualDubMod build 2542/release

    Видео
    Идентификатор : 0
    Формат : MPEG-4 Visual
    Профиль формата : Advanced Simple@L5
    Параметр BVOP формата : 1
    Параметр QPel формата : Нет
    Параметр GMC формата : Без точки перехода
    Параметр матрицы формата : Выборочная
    Идентификатор кодека : XVID
    Идентификатор кодека/Подсказка : XviD
    Продолжительность : 1 ч. 41 м.
    Битрейт : 888 Кбит/сек
    Ширина : 656 пикселей
    Высота : 368 пикселей
    Соотношение сторон : 16:9
    Частота кадров : 25,000 кадров/сек
    Цветовое пространство : YUV
    Субдискретизация насыщенности : 4:2:0
    Битовая глубина : 8 бит
    Тип развёртки : Прогрессивная
    Метод сжатия : С потерями
    Бит/(Пиксели*Кадры) : 0.147
    Размер потока : 645 Мбайт (87%)
    Библиотека кодирования : XviD 73

    Аудио
    Идентификатор : 1
    Формат : MPEG Audio
    Версия формата : Version 1
    Профиль формата : Layer 3
    Идентификатор кодека : 55
    Идентификатор кодека/Подсказка : MP3
    Продолжительность : 1 ч. 41 м.
    Вид битрейта : Постоянный
    Битрейт : 128 Кбит/сек
    Каналы : 2 канала
    Частота : 48,0 КГц
    Метод сжатия : С потерями
    Размер потока : 93,0 Мбайт (12%)
    Выравнивание : Соединение по промежуткам
    Продолжительность промежутка : 40 мс. (1,00 видеокадр)
    Время предзагрузки промежутка : 504 мс.
    Библиотека кодирования : LAME3.99r
    Залил: AVPStudio
    Размер скачиваемого торрента: 745.21 MB (781410304 Bytes)


    Убежище / Hideaway (1995) HDTVRip от New-Team | P торрент скачать бесплатно
    загрузка...
    Рейтинг →
     (голосов: 1, оценка 3/5, голосовать можно 1 раз )

    Другие торренты по теме:

  • Идеальное убежище / Perfect Hideout (2008) HDRip (AVC) от ExKinoRay
  • Убежище / Hideaway (1995) DVDRip | P2
  • Убежище / Shelter (2010) НDRip от Scarabey | D
  • Убежище / Sanctuary (2008-2009) WEB-DL 720p | SyFy скачать через торрент бесплатно
  • Убежище / Shelter (2010) BDRip 1080p от denis 100
  • Убежище / Логово / Hideaway (1995) HDTV 1080i | P скачать через торрент бесплатно
  • Убежище / Логово / Hideaway (1995) HDTVRip-AVC | P скачать через торрент бесплатно
  • Убежище / Hideaway (1995) HDTVRip от New-Team | P


    • Комментарии (0):

      Информация

      Информация

        Посетители, находящиеся в группе Гости, не могут оставлять комментарии в данной новости.

        ↓ Меню



        ↓ Опрос

        А Вы добавили сайт в закладки?
        Да
        Не


        Top 10 за месяц (Фильмы)