.
Авторизация | Регистрация
Хочешь лучшие торренты? Добавь свой email!
Добавить
» » Огонь в небе / Fire in the Sky (1993) WEB-DLRip от Leon-masl | P скачать торрент бесплатно




    Огонь в небе / Fire in the Sky (1993) WEB-DLRip от Leon-masl | P скачать торрент бесплатно

    Опубликовал: Админ | Дата: 27-02-2015, 11:10 | Просмотров: 216



    Детально о кино
    Русское название: Огонь в небе
    Русское название в мировом прокате: Fire in the Sky
    Создали в: 1993
    Категория жанра: ужасы, фантастика, драма, детектив
    Главный режиссер: Роберт Либерман
    Актеры: Д.Б. Суини, Роберт Патрик, Крэйг Шеффер, Питер Берг, Генри Томас, Брэдли Грегг, Ноубл Уиллингэм, Кэтлин Уилхойт, Джеймс Гарнер, Джорджия Эмелин

    Сюжет фильма:
    Однажды, осенним вечером, группа лесорубов, трудившихся в чаще северо-восточной части штата Аризона, заметила необычайно яркий источник света. Любопытные работяги, среди которых был и Тревис Уолтон, решили рассмотреть странный огонь вблизи. Это и явилось их роковой ошибкой. Тревис Уолтон исчез на глазах своих товарищей.

    Парализованные ужасом, лесорубы сообщили, что несчастного похитил НЛО. Но этим людям не поверили и начали подозревать их в убийстве. Местные власти объявили официальный розыск Тревиса Уолтона. Полиция совместно с отрядами гражданской обороны день и ночь прочесывала окрестности. Однако попытки найти пропавшего рабочего были тщетны.




    Снималось в: США
    Время просмотра: 01:49:19
    Перевод текста: Профессиональный Многоголосый закадровый |iTunes Russia|

    Файл
    Кодек для видео: Xvid
    Качество фильма: WEB-DLRip
    Информация о видео: 720x304, 23,976 fps, 1673 kbps
    Информация о звуке: AC-3, 2 ch, 192 kbps
    MI
    Общее
    Полное имя : Fire.in.the.Sky.1993.WEB-DLRip.avi
    Формат : AVI
    Формат/Информация : Audio Video Interleave
    Размер файла : 1,43 Гбайт
    Продолжительность : 1 ч. 49 м.
    Общий поток : 1874 Кбит/сек
    Программа кодирования : VirtualDubMod 1.5.10.3 | www.virtualdub-fr.org || (build 2550/release)
    Библиотека кодирования : VirtualDubMod build 2550/release

    Видео
    Идентификатор : 0
    Формат : MPEG-4 Visual
    Профиль формата : Advanced Simple@L5
    Параметр BVOP формата : 1
    Параметр QPel формата : Нет
    Параметр GMC формата : Без точки перехода
    Параметр матрицы формата : Выборочная
    Идентификатор кодека : XVID
    Идентификатор кодека/Подсказка : XviD
    Продолжительность : 1 ч. 49 м.
    Битрейт : 1673 Кбит/сек
    Ширина : 720 пикс.
    Высота : 304 пикс.
    Соотношение сторон : 2,35:1
    Частота кадров : 23,976 кадр/сек
    Цветовое пространство : YUV
    Подвыборка цветности : 4:2:0
    Битовая глубина : 8 бит
    Тип развёртки : Прогрессивная
    Метод сжатия : С потерями
    Бит/(Пиксели*Кадры) : 0.319
    Размер потока : 1,28 Гбайт (89%)
    Библиотека кодирования : XviD 73

    Аудио
    Идентификатор : 1
    Формат : AC-3
    Формат/Информация : Audio Coding 3
    Расширение режима : CM (complete main)
    Идентификатор кодека : 2000
    Продолжительность : 1 ч. 49 м.
    Вид битрейта : Постоянный
    Битрейт : 192 Кбит/сек
    Канал(ы) : 2 канала(ов)
    Расположение каналов : Front: L R
    Частота : 48,0 КГц
    Битовая глубина : 16 бит
    Метод сжатия : С потерями
    Размер потока : 150 Мбайт (10%)
    Выравнивание : Разделение по промежуткам
    Продолжительность промежутка : 42 мс. (1,00 видеокадр)
    Время предзагрузки промежутка : 500 ms
    Скриншоты для ознакомления


    Релиз подготовил: Leon-masl
    Залил: leon-masl
    Размер скачиваемого торрента: 1.43 GB (1536782336 Bytes)

    Огонь в небе / Fire in the Sky (1993) WEB-DLRip от Leon-masl | P торрент скачать бесплатно
    загрузка...
    Рейтинг →
     (голосов: 1, оценка 4/5, голосовать можно 1 раз )

    Другие торренты по теме:

  • Огонь в небе / Fire in the Sky (1993) DVDRip | P2
  • Соколов Григорий - 25 способов добыть огонь в экстремальных условиях (2013) DVDRip
  • Огонь в глазах самурая / Zatoichi Challenged / Zatichi chikemuri kaid (1967) HDRip от Assassins Creed | L1 скачать через торрент бесплатно
  • Огонь в ночи / Tuli öös / 1973 / ЛО, СТ / DVDRip
  • Огонь и пламя / Весь в огне / Tout feu, tout flamme (1982) DVDRip от MediaClub
  • Масло в огонь / De lhuile sur le feu (2011) SATRip от MediaClub | P
  • Масло в огонь / De lhuile sur le feu (2011) DVB от MediaClub | P скачать через торрент бесплатно
  • Масло в огонь / De lhuile sur le feu / Wok the Kasbah (2011) BDRip 720p от CINEMANIA | НТВ


    • Комментарии (0):

      Информация

      Информация

        Посетители, находящиеся в группе Гости, не могут оставлять комментарии в данной новости.

        ↓ Меню



        ↓ Опрос

        А Вы добавили сайт в закладки?
        Да
        Не


        Top 10 за месяц (Фильмы)