.
Авторизация | Регистрация
Хочешь лучшие торренты? Добавь свой email!
Добавить
» » Ворон / The Crow (1994) HDRip от Leon-masl скачать торрент бесплатно




    Ворон / The Crow (1994) HDRip от Leon-masl скачать торрент бесплатно

    Опубликовал: Админ | Дата: 27-02-2015, 11:10 | Просмотров: 274



    Детально о кино
    Русское название: Ворон
    Русское название в мировом прокате: The Crow
    Создали в: 1994
    Категория жанра: боевик, триллер, фэнтези, мелодрама, криминал
    Главный режиссер: Алекс Пройас
    Актеры: Брендон Ли, Эрни Хадсон, Майкл Винкот, Девид Патрик Келли, Энджел Девид, Рошель Девис, Линг Бай, Лоуренс Мейсон, Майкл Масси

    Сюжет фильма:
    Это была мрачная и страшная ночь. Ночь жуткого праздника Хэллоуин. Банда насильников и убийц, ворвавшись в дом молодой пары, жестоко расправилась с рок-музыкантом Эриком и его невестой Шелли.

    Спустя год Эрик Дрэйвен выбирается из могилы и отправляется на поиски убийц. Человек ли он? Или Ворон, жаждущий возмездия?




    Снималось в: США
    Киностудия: Crowvision Inc., Edward R. Pressman Film Corporation, Entertainment Media Investment Corporation, Jeff Most Productions, Miramax Films
    Время просмотра: 01:41:38
    Перевод текста: профессиональный (дублированный)|Хлопушка|

    Файл
    Кодек для видео: XviD
    Качество фильма: HDRip с BDRip |1080p|
    Информация о видео: 720x400, 23.976 fps, 1789 kbps
    Информация о звуке: AC3, 2 ch, 256 kbps
    MI
    Общее
    Полное имя : The.Crow.1994.HDRip.avi
    Формат : AVI
    Формат/Информация : Audio Video Interleave
    Размер файла : 1,46 Гбайт
    Продолжительность : 1 ч. 41 м.
    Общий поток : 2054 Кбит/сек
    Программа кодирования : VirtualDubMod 1.5.10.3 | www.virtualdub-fr.org || (build 2550/release)
    Библиотека кодирования : VirtualDubMod build 2550/release

    Видео
    Идентификатор : 0
    Формат : MPEG-4 Visual
    Профиль формата : Advanced Simple@L5
    Параметр BVOP формата : 2
    Параметр QPel формата : Нет
    Параметр GMC формата : Без точки перехода
    Параметр матрицы формата : Выборочная
    Идентификатор кодека : XVID
    Идентификатор кодека/Подсказка : XviD
    Продолжительность : 1 ч. 41 м.
    Битрейт : 1789 Кбит/сек
    Ширина : 720 пикс.
    Высота : 400 пикс.
    Соотношение сторон : 16:9
    Частота кадров : 23,976 кадр/сек
    Цветовое пространство : YUV
    Подвыборка цветности : 4:2:0
    Битовая глубина : 8 бит
    Тип развёртки : Прогрессивная
    Метод сжатия : С потерями
    Бит/(Пиксели*Кадры) : 0.259
    Размер потока : 1,27 Гбайт (87%)
    Библиотека кодирования : XviD 73

    Аудио
    Идентификатор : 1
    Формат : AC-3
    Формат/Информация : Audio Coding 3
    Расширение режима : CM (complete main)
    Идентификатор кодека : 2000
    Продолжительность : 1 ч. 41 м.
    Вид битрейта : Постоянный
    Битрейт : 256 Кбит/сек
    Канал(ы) : 2 канала(ов)
    Расположение каналов : Front: L R
    Частота : 48,0 КГц
    Битовая глубина : 16 бит
    Метод сжатия : С потерями
    Размер потока : 186 Мбайт (12%)
    Выравнивание : Разделение по промежуткам
    Продолжительность промежутка : 42 мс. (1,00 видеокадр)
    Время предзагрузки промежутка : 500 ms
    Скриншоты для ознакомления


    Релиз подготовил: Leon-masl
    Залил: leon-masl
    Размер скачиваемого торрента: 1.46 GB (1566007296 Bytes)

    Ворон / The Crow (1994) HDRip от Leon-masl торрент скачать бесплатно
    загрузка...
    Рейтинг →
     (голосов: 1, оценка 3/5, голосовать можно 1 раз )

    Другие торренты по теме:

  • Ворон / The Crow (1994) BDRemux 1080p | USA Transfer
  • День ворон / Le jour des corneilles (2012) BDRemux 1080p | P2
  • Ворон 2: Город ангелов / The Crow: City of Angels (1996) HDRip
  • Ворон / The Raven (2012) BDRip 1080p
  • Ворон / Der Rabe (1951) DVDRip | Sub скачать через торрент бесплатно
  • Ворон / The Crow (1994) BDRip 720p от leonardo 59 Scarabey скачать через торрент бесплатно
  • Ворон / The Crow (1994) BDRip-AVC от leonardo 59 Scarabey скачать через торрент бесплатно
  • Ворон / THE RAVEN (2010) WEBRip 720p | Точка Zрения скачать через торрент бесплатно


    • Комментарии (0):

      Информация

      Информация

        Посетители, находящиеся в группе Гости, не могут оставлять комментарии в данной новости.

        ↓ Меню



        ↓ Опрос

        А Вы добавили сайт в закладки?
        Да
        Не


        Top 10 за месяц (Фильмы)