.
Авторизация | Регистрация
Хочешь лучшие торренты? Добавь свой email!
Добавить
» » Балбесы / The Goonies (1985) DVD-9 скачать через торрент бесплатно




    Балбесы / The Goonies (1985) DVD-9 скачать через торрент бесплатно

    Опубликовал: Админ | Дата: 27-02-2015, 11:10 | Просмотров: 195




    Детально о кино
    Русское название: Балбесы
    Русское название в мировом прокате: The Goonies
    Создали в: 1985
    Категория жанра: Комедия
    Главный режиссер: Ричард Доннер
    Актеры: Шон Эстин, Джош Бролин, Джефф Коэн, Кори Фельдман, Керри Грин, Марта Плимптон, Джонатан Ке Кван, Джон Матушак, Роберт Дави, Джо Пантолиано

    Сюжет фильма: Команда маленьких героев пускается в самое опасное в их жизни путешествие! Они ищут сокровища, которые спрятал 300 лет назад пират Одноглазый Билли. С помощью найденной на чердаке таинственной карты они спускаются в подземный мир глубоких пещер, опасных ловушек, чтобы найти пиратский галеон, полный золотых дублонов. Но самая большая опасность уже наступает им на пятки: это — банда злодеев… и загадочный монстр!



    Снималось в: США
    Киностудия: Amblin Entertainment, Warner Bros. Pictures
    Время просмотра: 01:52:05
    Перевод текста: Профессиональный многоголосый, авторский

    Файл
    Кодек для видео: MPEG-2
    Качество фильма: DVD-9
    Информация о видео: PAL 16:9 (720x576) VBR
    Информация о звуке: Русский, английский, немецкий, испанский (Dolby AC3, 2 ch), английский (Dolby AC3, 6 ch)

    Перевод

    1. Английский (Dolby AC3, 6 ch)
    2. Немецкий (Dolby AC3, 2 ch)
    3. Испанский (Dolby AC3, 2 ch)
    4. Английский (Dolby AC3, 2 ch)
    5. Профессиональный многоголосый (Dolby AC3, 2 ch)
    6. Авторский (Володарский) (Dolby AC3, 2 ch)
    7. Авторский (Михалев) (Dolby AC3, 2 ch)
    Меню
    DVDInfo
    Title: Локальный диск
    Size: 6.78 Gb ( 7 104 116 KBytes ) - DVD-9
    Enabled regions: 1, 2, 3, 4, 5, 6, 7, 8

    VTS_01 :
    Play Length: 01:49:17+00:00:12+00:02:36
    Video: PAL 16:9 (720x576) VBR, Auto PanScan
    Audio:
    English (Dolby AC3, 6 ch)
    Deutsch (Dolby AC3, 2 ch)
    Espanol (Dolby AC3, 2 ch)
    English (Dolby AC3, 2 ch)
    Russian (Dolby AC3, 2 ch)
    Russian (Dolby AC3, 2 ch)
    Russian (Dolby AC3, 2 ch)

    VTS_02 :
    Play Length: 00:12:06+00:06:56+00:06:51
    Video: PAL 4:3 (720x576) VBR
    Audio:
    English (Dolby AC3, 6 ch)
    Deutsch (Dolby AC3, 6 ch)
    Espanol (Dolby AC3, 6 ch)
    English (Dolby AC3, 6 ch)
    English (Dolby AC3, 2 ch)



    Menu Video:
    PAL 16:9 (720x576) VBR
    Auto Letterboxed
    Menu Subtitles:
    Not specified
    Menu Language Unit :
    Root Menu


    MediaInfo
    Общее
    Полное имя : D:1АААБАЛБЕСЫVIDEO_TSVTS_01_1.VOB
    Формат : MPEG-PS
    Размер файла : 1024 Мбайт
    Продолжительность : 18 м.
    Режим общего битрейта : Переменный
    Общий поток : 7936 Кбит/сек

    Видео
    Идентификатор : 224 (0xE0)
    Формат : MPEG Video
    Версия формата : Version 2
    Профиль формата : Main@Main
    Параметр BVOP формата : Да
    Параметр матрицы формата : Выборочная
    Параметр GOP формата : M=3, N=15
    Продолжительность : 18 м.
    Вид битрейта : Переменный
    Битрейт : 6242 Кбит/сек
    Максимальный битрейт : 7500 Кбит/сек
    Ширина : 720 пикселей
    Высота : 576 пикселей
    Соотношение сторон : 16:9
    Частота кадров : 25,000 кадров/сек
    Стандарт вещания : PAL
    Цветовое пространство : YUV
    Субдискретизация насыщенности : 4:2:0
    Битовая глубина : 8 бит
    Тип развёртки : Прогрессивная
    Порядок развёртки : Верхнее поле первое
    Метод сжатия : С потерями
    Бит/(Пиксели*Кадры) : 0.602
    TimeCode_FirstFrame : 00:59:58:00
    TimeCode_Source : Group of pictures t_head
    Размер потока : 805 Мбайт (79%)

    Аудио #1
    Идентификатор : 189 (0xBD)-132 (0x84)
    Формат : AC-3
    Формат/Информация : Audio Coding 3
    Расширение режима : CM (complete main)
    Параметр Endianness формата : Big
    Режим смешивания : DVD-Video
    Продолжительность : 18 м.
    Вид битрейта : Постоянный
    Битрейт : 192 Кбит/сек
    Каналы : 2 канала
    Расположение каналов : Front: L R
    Частота : 48,0 КГц
    Битовая глубина : 16 бит
    Метод сжатия : С потерями
    Задержка видео : -80 мс.
    Размер потока : 24,8 Мбайт (2%)

    Аудио #2
    Идентификатор : 189 (0xBD)-128 (0x80)
    Формат : AC-3
    Формат/Информация : Audio Coding 3
    Расширение режима : CM (complete main)
    Параметр Endianness формата : Big
    Режим смешивания : DVD-Video
    Продолжительность : 6 с. 80 мс.
    Вид битрейта : Постоянный
    Битрейт : 384 Кбит/сек
    Каналы : 6 каналов
    Расположение каналов : Front: L C R, Side: L R, LFE
    Частота : 48,0 КГц
    Битовая глубина : 16 бит
    Метод сжатия : С потерями
    Размер потока : 285 Кбайт (0%)

    Аудио #3
    Идентификатор : 189 (0xBD)-129 (0x81)
    Формат : AC-3
    Формат/Информация : Audio Coding 3
    Профиль формата : Dolby Digital
    Расширение режима : CM (complete main)
    Параметр Endianness формата : Big
    Режим смешивания : DVD-Video
    Продолжительность : 6 с. 16 мс.
    Вид битрейта : Постоянный
    Битрейт : 192 Кбит/сек
    Каналы : 2 канала
    Расположение каналов : Front: L R
    Частота : 48,0 КГц
    Битовая глубина : 16 бит
    Метод сжатия : С потерями
    Размер потока : 141 Кбайт (0%)

    Аудио #4
    Идентификатор : 189 (0xBD)-130 (0x82)
    Формат : AC-3
    Формат/Информация : Audio Coding 3
    Профиль формата : Dolby Digital
    Расширение режима : CM (complete main)
    Параметр Endianness формата : Big
    Режим смешивания : DVD-Video
    Продолжительность : 6 с. 16 мс.
    Вид битрейта : Постоянный
    Битрейт : 192 Кбит/сек
    Каналы : 2 канала
    Расположение каналов : Front: L R
    Частота : 48,0 КГц
    Битовая глубина : 16 бит
    Метод сжатия : С потерями
    Размер потока : 141 Кбайт (0%)

    Аудио #5
    Идентификатор : 189 (0xBD)-131 (0x83)
    Формат : AC-3
    Формат/Информация : Audio Coding 3
    Профиль формата : Dolby Digital
    Расширение режима : CM (complete main)
    Параметр Endianness формата : Big
    Режим смешивания : DVD-Video
    Продолжительность : 6 с. 16 мс.
    Вид битрейта : Постоянный
    Битрейт : 192 Кбит/сек
    Каналы : 2 канала
    Расположение каналов : Front: L R
    Частота : 48,0 КГц
    Битовая глубина : 16 бит
    Метод сжатия : С потерями
    Размер потока : 141 Кбайт (0%)

    Аудио #6
    Идентификатор : 189 (0xBD)-133 (0x85)
    Формат : AC-3
    Формат/Информация : Audio Coding 3
    Расширение режима : CM (complete main)
    Параметр Endianness формата : Big
    Режим смешивания : DVD-Video
    Продолжительность : 6 с. 16 мс.
    Вид битрейта : Постоянный
    Битрейт : 192 Кбит/сек
    Каналы : 2 канала
    Расположение каналов : Front: L R
    Частота : 48,0 КГц
    Битовая глубина : 16 бит
    Метод сжатия : С потерями
    Размер потока : 141 Кбайт (0%)

    Аудио #7
    Идентификатор : 189 (0xBD)-134 (0x86)
    Формат : AC-3
    Формат/Информация : Audio Coding 3
    Расширение режима : CM (complete main)
    Параметр Endianness формата : Big
    Режим смешивания : DVD-Video
    Продолжительность : 6 с. 16 мс.
    Вид битрейта : Постоянный
    Битрейт : 192 Кбит/сек
    Каналы : 2 канала
    Расположение каналов : Front: L R
    Частота : 48,0 КГц
    Битовая глубина : 16 бит
    Метод сжатия : С потерями
    Размер потока : 141 Кбайт (0%)

    Меню


    Скриншоты для ознакомления

    Залил: YArl
    Размер скачиваемого торрента: 6.78 GB (7274614784 Bytes)

    Балбесы / The Goonies (1985) DVD-9 скачать через торрент бесплатно
    загрузка...
    Рейтинг →
     (голосов: 1, оценка 4/5, голосовать можно 1 раз )

    Другие торренты по теме:

  • Балбесы / The Goonies (1985) BDRip | P
  • Глиняные балбесы / Purple and Brown (2006) TVRip скачать через торрент бесплатно
  • Балбесы / The Goonies / 1985 / АП (Михалёв) / BDRip
  • Балбесы / The Goonies (1985) HDRip от Scarabey | P


    • Комментарии (0):

      Информация

      Информация

        Посетители, находящиеся в группе Гости, не могут оставлять комментарии в данной новости.

        ↓ Меню



        ↓ Опрос

        А Вы добавили сайт в закладки?
        Да
        Не


        Top 10 за месяц (Фильмы)