.
Авторизация | Регистрация
Хочешь лучшие торренты? Добавь свой email!
Добавить
» » Венские девушки / Wiener Mdeln (1949) SATRip от NovaLan скачать через торрент бесплатно




    Венские девушки / Wiener Mdeln (1949) SATRip от NovaLan скачать через торрент бесплатно

    Опубликовал: Админ | Дата: 27-02-2015, 11:10 | Просмотров: 338




    Детально о кино
    Русское название в мировом прокате: Wiener M?deln
    Создали в: 1949
    Категория жанра: Мюзикл, биография, комедия, музыкальная мелодрама
    Главный режиссер: Вилли Форст
    Актеры: Вилли Форст, Дора Комар, Юдит Хольцмайстер, Вера Шмид, Хильда Фёда, Антон Эдтофер, Ганс Мозер, Эдмунд Шелльхаммер, Фридль Герлин, Леопольд Хайниш, Лиззи Хольцшух, Хэнси Сторк, Курд Юргенс, Фердинанд Майерхофер, Фред Ливер, Альфред Нойгебауер, Андре Маттони, Макс Гюльсторф, Фриц Имхофф, Хедвига Бляйбтрой

    Сюжет фильма: Музыкальный фильм о жизни и творчестве известного австрийского композитора Карла Михаэля Цирера.



    Снималось в: Австрия, Германия
    Киностудия: Deutsche Forst-Filmproduktion GmbH, Wien-Film
    Время просмотра: 01:38:24
    Перевод текста: Любительский одноголосый закадровый

    Файл
    Тип релиза: SATRip
    Информация о видео: DivX, 1639 Кбит/с, 640x480
    Информация о звуке: Русский, немецкий (АС3, 2 ch, 192 Кбит/с)

    MediaInfo
    Общее
    Полное имя : D:1АААВенские девушки.avi
    Формат : AVI
    Формат/Информация : Audio Video Interleave
    Размер файла : 1,40 Гбайт
    Продолжительность : 1 ч. 38 м.
    Общий поток : 2038 Кбит/сек
    Программа кодирования : VirtualDubMod 1.5.10.2 (build 2540/release)
    Библиотека кодирования : VirtualDubMod build 2540/release

    Видео
    Идентификатор : 0
    Формат : MPEG-4 Visual
    Параметр BVOP формата : 1
    Параметр QPel формата : Нет
    Параметр GMC формата : Без точки перехода
    Параметр матрицы формата : Default (H.263)
    Режим смешивания : Сжатый битовый поток
    Идентификатор кодека : DX50
    Идентификатор кодека/Подсказка : DivX 5
    Продолжительность : 1 ч. 38 м.
    Битрейт : 1639 Кбит/сек
    Ширина : 640 пикселей
    Высота : 480 пикселей
    Соотношение сторон : 4:3
    Частота кадров : 25,000 кадров/сек
    Цветовое пространство : YUV
    Субдискретизация насыщенности : 4:2:0
    Битовая глубина : 8 бит
    Тип развёртки : Прогрессивная
    Метод сжатия : С потерями
    Бит/(Пиксели*Кадры) : 0.213
    Размер потока : 1,13 Гбайт (80%)
    Библиотека кодирования : DivX 6.4.0 (UTC 2006-10-03)

    Аудио #1
    Идентификатор : 1
    Формат : AC-3
    Формат/Информация : Audio Coding 3
    Расширение режима : CM (complete main)
    Параметр Endianness формата : Big
    Идентификатор кодека : 2000
    Продолжительность : 1 ч. 38 м.
    Вид битрейта : Постоянный
    Битрейт : 192 Кбит/сек
    Каналы : 2 канала
    Расположение каналов : Front: L R
    Частота : 48,0 КГц
    Битовая глубина : 16 бит
    Метод сжатия : С потерями
    Размер потока : 135 Мбайт (9%)
    Выравнивание : Разделение по промежуткам
    Продолжительность промежутка : 40 мс. (1,00 видеокадр)
    Время предзагрузки промежутка : 500 мс.

    Аудио #2
    Идентификатор : 2
    Формат : AC-3
    Формат/Информация : Audio Coding 3
    Расширение режима : CM (complete main)
    Параметр Endianness формата : Big
    Идентификатор кодека : 2000
    Продолжительность : 1 ч. 38 м.
    Вид битрейта : Постоянный
    Битрейт : 192 Кбит/сек
    Каналы : 2 канала
    Расположение каналов : Front: L R
    Частота : 48,0 КГц
    Битовая глубина : 16 бит
    Метод сжатия : С потерями
    Размер потока : 135 Мбайт (9%)
    Выравнивание : Разделение по промежуткам
    Продолжительность промежутка : 40 мс. (1,00 видеокадр)
    Время предзагрузки промежутка : 500 мс.





    Скриншоты для ознакомления




    Релиз группа:
    Автор рипа:
    Залил: YArl
    Размер скачиваемого торрента: 1.40 GB (1503713280 Bytes)

    Венские девушки / Wiener Mdeln (1949) SATRip от NovaLan скачать через торрент бесплатно
    загрузка...
    Рейтинг →
     (голосов: 1, оценка 3/5, голосовать можно 1 раз )

    Другие торренты по теме:

  • Контрольная закупка - Сосиски Венские [Эфир от 17.09.2014] скачать через торрент бесплатно
  • Венские вальсы / Waltzes from Vienna (Strauss' Great Waltz) / 1934 / ПО / DVDRip


    • Комментарии (0):

      Информация

      Информация

        Посетители, находящиеся в группе Гости, не могут оставлять комментарии в данной новости.

        ↓ Меню



        ↓ Опрос

        А Вы добавили сайт в закладки?
        Да
        Не


        Top 10 за месяц (Фильмы)