.
Авторизация | Регистрация
Хочешь лучшие торренты? Добавь свой email!
Добавить
» » Дворецкий / The Butler (2013) BDRip от New-Team | P | лицензия скачать через торрент бесплатно




    Дворецкий / The Butler (2013) BDRip от New-Team | P | лицензия скачать через торрент бесплатно

    Опубликовал: Админ | Дата: 27-02-2015, 11:10 | Просмотров: 194

    One quiet voice can ignite a revolution


    Снималось в: США / AI-Film, Follow Through Productions, Laura Ziskin Productions, Lee Daniels Entertainment, Pam Williams Productions, Salamander Pictures, Windy Hill Pictures

    Категория жанра: драма, биография
    Создали в: 2013
    Время просмотра: 02:12:06

    Перевод текста: Профессиональный (многоголосый закадровый)
    Субтитры подготовлены: русские, английские
    Оригинальная аудиодорожка: английский (отдельным файлом)

    Главный режиссер: Ли Дэниелс / Lee Daniels

    Актеры: Форест Уитакер, Опра Уинфри, Кьюба Гудинг мл., Дэвид Ойелоуо, Терренс Ховард, Робин Уильямс, Лив Шрайбер, Алан Рикман, Джон Кьюсак, Дэвид Баннер...

    Сюжет: В фильме, основанном на статье из Washington Post, рассказывается о дворецком Юджине Аллене, служившем в Белом Доме под началом восьми разных президентов.



    Качество фильма: BDRip / BDRemux 1080p + DVD9 R5 от Lizard Cinema Trade
    Тип видео: AVI

    Информация о видео: 720x384 (1.85:1), 23.976 fps, XViD ~ 1913 kbps avg, 0.289 bit/pixel
    Информация о звуке 1: 48 kHz, Dolby AC3, 6 ch, 448 kbps, русский
    Информация о звуке 2: 48 kHz, Dolby AC3, 6 ch, 448 kbps, английский (отдельным файлом)

    Раздача от:
    MediaInfo

    Общее
    Полное имя : Dvoretskiy.2013.P.DVDRip_New-Team_by_avproh.avi
    Формат : AVI
    Формат/Информация : Audio Video Interleave
    Профиль формата : OpenDML
    Размер файла : 2,19 Гбайт
    Продолжительность : 2 ч. 12 м.
    Общий поток : 2373 Кбит/сек
    Программа кодирования : VirtualDubModRus 1.5.10.2 (build 2542/release)
    Библиотека кодирования : VirtualDubMod build 2542/release

    Видео
    Идентификатор : 0
    Формат : MPEG-4 Visual
    Профиль формата : Advanced Simple@L5
    Параметр BVOP формата : 1
    Параметр QPel формата : Нет
    Параметр GMC формата : Без точки перехода
    Параметр матрицы формата : Выборочная
    Идентификатор кодека : XVID
    Идентификатор кодека/Подсказка : XviD
    Продолжительность : 2 ч. 12 м.
    Битрейт : 1913 Кбит/сек
    Ширина : 720 пикселей
    Высота : 384 пикселя
    Соотношение сторон : 1,85:1
    Частота кадров : 23,976 кадра/сек
    Цветовое пространство : YUV
    Субдискретизация насыщенности : 4:2:0
    Битовая глубина : 8 бит
    Тип развёртки : Прогрессивная
    Метод сжатия : С потерями
    Бит/(Пиксели*Кадры) : 0.289
    Размер потока : 1,77 Гбайт (81%)
    Библиотека кодирования : XviD 73

    Аудио
    Идентификатор : 1
    Формат : AC-3
    Формат/Информация : Audio Coding 3
    Расширение режима : CM (complete main)
    Параметр Endianness формата : Big
    Идентификатор кодека : 2000
    Продолжительность : 2 ч. 12 м.
    Вид битрейта : Постоянный
    Битрейт : 448 Кбит/сек
    Каналы : 6 каналов
    Расположение каналов : Front: L C R, Side: L R, LFE
    Частота : 48,0 КГц
    Битовая глубина : 16 бит
    Метод сжатия : С потерями
    Размер потока : 423 Мбайт (19%)
    Выравнивание : Разделение по промежуткам
    Продолжительность промежутка : 42 мс. (1,00 видеокадр)
    Время предзагрузки промежутка : 500 мс.

    Скриншоты для ознакомления:



    Размер скачиваемого торрента: 2.60 GB (2795571080 Bytes)

    Дворецкий / The Butler (2013) BDRip от New-Team | P | лицензия скачать через торрент бесплатно
    загрузка...
    Рейтинг →
     (голосов: 1, оценка 3/5, голосовать можно 1 раз )

    Другие торренты по теме:

  • Темный дворецкий / Kuroshitsuji II / Dark Butler (2010) BDRip 720p от FilmRus
  • Дворецкий / The Butler (2013) BDRip 1080p | L1
  • Дворецкий / The Butler (2013) BDRip 720p | L1
  • Дворецкий / The Butler (2013) HDRip | L1
  • Дворецкий / The Butler (2013) HDRip от Scarabey
  • Дворецкий / The Butler (2013) BDRip 720p от Leonardo and Scarabey | L1 скачать через торрент бесплатно
  • Дворецкий / The Butler (2013) HDRip | L2
  • Дворецкий / The Butler (2013) HDRip-AVC | L2 скачать через торрент бесплатно


    • Комментарии (0):

      Информация

      Информация

        Посетители, находящиеся в группе Гости, не могут оставлять комментарии в данной новости.

        ↓ Меню



        ↓ Опрос

        А Вы добавили сайт в закладки?
        Да
        Не


        Top 10 за месяц (Фильмы)