.
Авторизация | Регистрация
Хочешь лучшие торренты? Добавь свой email!
Добавить
» » Человек в железной маске / The Man in the Iron Mask (1998) BDRip 720p by msltel | D, P, P2, A скачать через торрент бесплатно




    Человек в железной маске / The Man in the Iron Mask (1998) BDRip 720p by msltel | D, P, P2, A скачать через торрент бесплатно

    Опубликовал: Админ | Дата: 27-02-2015, 11:10 | Просмотров: 185



    Русское название: Человек в железной маске
    Русское название в мировом прокате: The Man in the Iron Mask
    Создали в: 1998
    Категория жанра: Боевик, приключения
    Снималось в: США, Великобритания, United Artists Corporation Ltd.
    Главный режиссер: Рэндалл Уоллас
    Актеры: Леонардо ДиКаприо, Гэбриел Бирн, Джон Малкович, Жерар Депардьё, Джереми Айронс, Анн Парийо, Жюдит Годреш, Эдвард Аттертон, Питер Сарсгаард, Хью Лори, Дэвид Лоу, Брижитт Бушер, Кристиан Эриксон, Маттью Жослин, Карина Белли, Эммануэль Гуттиерес, Франсуа Монтегю, Сесиль Оклер, Венсан Немет, Джо Шеридан, Оливье Эмон, Майкл Моррис, Леонор Варела, Майкл Хофланд, Жан-Поль Бриссар, Эмманюэль Патрон, Брижитт Обер

    Сюжет фильма: Во времена блеска и отчаяния измученной Франции король Людовик XIV вовсю наслаждается прелестями жизни, пока вся его страна голодает. Людовик, уверенный в абсолютности собственной власти, опасается лишь одного человека, способного положить конец его царствованию, - приговорённого им к пожизненному заключению и закованного в железную маску. Но когда королевский эгоизм заходит слишком далеко, бывшие мушкетеры Атос, Портос и Арамис отваживаются спасти таинственного узника, который может стать единственной надеждой Франции на возрождение. Остается лишь вопрос: поможет ли им верный друг, славный д`Артаньян, - или будет драться против?..

    Качество фильма: BDRip 720p
    Размер скачиваемого торрента: 9.84 ГБ
    Время просмотра: 02:12:15

    Информация о видео: MPEG-4 AVC, 4903 Кбит/с, 1280x694
    Информация о звуке 1: русский, 48 kHz, AC3, 6 ch, 448 kbps avg, Дублированный
    Информация о звуке 2: русский, 48 kHz, AC3, 2 ch, 192 kbps avg, Профессиональный многоголосый, НТВ
    Информация о звуке 3: русский, 48 kHz, AC3, 2 ch, 192 kbps avg, Профессиональный многоголосый, ОРТ
    Информация о звуке 4: русский, 48 kHz, AC3, 6 ch, 448 kbps avg, Профессиональный двухголосый, R5
    Информация о звуке 5: русский, 48 kHz, AC3, 6 ch, 448 kbps avg, Авторский, Юрий Живов

    Внешние файлы
    Информация о звуке: русский, 48 kHz, DTS, 6 ch, 755 kbps avg, Дублированный
    Информация о звуке: русский, 48 kHz, AC3, 2 ch, 192 kbps avg, Дублированный, вариант 2
    Информация о звуке: русский, 48 kHz, DTS, 6 ch, 755 kbps avg, Профессиональный двухголосый, R5
    Информация о звуке: русский, 48 kHz, DTS, 6 ch, 1509 kbps avg, Авторский, Юрий Живов
    Информация о звуке: английский, 48 kHz, AC3, 6 ch, 448 kbps avg, Оригинал
    Субтитры: русские
    Субтитры: английские

    Имеются неименованные главы/чаптеры.

    Исходник: Sergei7721 (Кинозал)

    Сравнение с исходником



    MegiaInfo +Лог х264
    Общее
    Полное имя : D:VideoChelovek v geleznoj maske.1998.x264.BDRip.720pChelovek v geleznoj maske.1998.AVO.rus.Ю.Живов.dts
    Формат : DTS
    Формат/Информация : Digital Theater Systems
    Размер файла : 1,39 Гбайт
    Продолжительность : 2 ч. 12 м.
    Режим общего битрейта : Постоянный
    Общий поток : 1509 Кбит/сек

    Аудио
    Формат : DTS
    Формат/Информация : Digital Theater Systems
    Режим : 16
    Параметр Endianness формата : Big
    Продолжительность : 2 ч. 12 м.
    Вид битрейта : Постоянный
    Битрейт : 1509 Кбит/сек
    Каналы : 6 каналов
    Расположение каналов : Front: L C R, Side: L R, LFE
    Частота : 48,0 КГц
    Битовая глубина : 24 бит
    Метод сжатия : С потерями
    Размер потока : 1,39 Гбайт

    Общее
    Полное имя : D:VideoChelovek v geleznoj maske.1998.x264.BDRip.720pChelovek v geleznoj maske.1998.Commentary.eng.ac3
    Формат : AC-3
    Формат/Информация : Audio Coding 3
    Размер файла : 212 Мбайт
    Продолжительность : 2 ч. 12 м.
    Режим общего битрейта : Постоянный
    Общий поток : 224 Кбит/сек

    Аудио
    Формат : AC-3
    Формат/Информация : Audio Coding 3
    Расширение режима : CM (complete main)
    Параметр Endianness формата : Big
    Продолжительность : 2 ч. 12 м.
    Вид битрейта : Постоянный
    Битрейт : 224 Кбит/сек
    Каналы : 2 канала
    Расположение каналов : Front: L R
    Частота : 48,0 КГц
    Битовая глубина : 16 бит
    Метод сжатия : С потерями
    Размер потока : 212 Мбайт (100%)

    Общее
    Полное имя : D:VideoChelovek v geleznoj maske.1998.x264.BDRip.720pChelovek v geleznoj maske.1998.DUB.rus.dts
    Формат : DTS
    Формат/Информация : Digital Theater Systems
    Размер файла : 727 Мбайт
    Продолжительность : 2 ч. 12 м.
    Режим общего битрейта : Постоянный
    Общий поток : 768 Кбит/сек

    Аудио
    Формат : DTS
    Формат/Информация : Digital Theater Systems
    Режим : 16
    Параметр Endianness формата : Big
    Продолжительность : 2 ч. 12 м.
    Вид битрейта : Постоянный
    Битрейт : 768 Кбит/сек
    Каналы : 6 каналов
    Расположение каналов : Front: L C R, Side: L R, LFE
    Частота : 48,0 КГц
    Битовая глубина : 24 бит
    Метод сжатия : С потерями
    Размер потока : 727 Мбайт (100%)

    Общее
    Полное имя : D:VideoChelovek v geleznoj maske.1998.x264.BDRip.720pChelovek v geleznoj maske.1998.DUB.rus.вариант 2.ac3
    Формат : AC-3
    Формат/Информация : Audio Coding 3
    Размер файла : 173 Мбайт
    Продолжительность : 2 ч. 5 м.
    Режим общего битрейта : Постоянный
    Общий поток : 192 Кбит/сек

    Аудио
    Формат : AC-3
    Формат/Информация : Audio Coding 3
    Расширение режима : CM (complete main)
    Параметр Endianness формата : Big
    Продолжительность : 2 ч. 5 м.
    Вид битрейта : Постоянный
    Битрейт : 192 Кбит/сек
    Каналы : 2 канала
    Расположение каналов : Front: L R
    Частота : 48,0 КГц
    Битовая глубина : 16 бит
    Метод сжатия : С потерями
    Размер потока : 173 Мбайт (100%)

    Общее
    Полное имя : D:VideoChelovek v geleznoj maske.1998.x264.BDRip.720pChelovek v geleznoj maske.1998.DVO.rus.R5.dts
    Формат : DTS
    Формат/Информация : Digital Theater Systems
    Размер файла : 713 Мбайт
    Продолжительность : 2 ч. 12 м.
    Режим общего битрейта : Постоянный
    Общий поток : 755 Кбит/сек

    Аудио
    Формат : DTS
    Формат/Информация : Digital Theater Systems
    Режим : 16
    Параметр Endianness формата : Big
    Продолжительность : 2 ч. 12 м.
    Вид битрейта : Постоянный
    Битрейт : 755 Кбит/сек
    Каналы : 6 каналов
    Расположение каналов : Front: L C R, Side: L R, LFE
    Частота : 48,0 КГц
    Битовая глубина : 24 бит
    Метод сжатия : С потерями
    Размер потока : 713 Мбайт (100%)

    Общее
    Полное имя : D:VideoChelovek v geleznoj maske.1998.x264.BDRip.720pChelovek v geleznoj maske.1998.eng.srt
    Формат : SubRip
    Размер файла : 82,3 Кбайт

    Текст
    Формат : SubRip
    Метод сжатия : Без потерь

    Общее
    Полное имя : D:VideoChelovek v geleznoj maske.1998.x264.BDRip.720pChelovek v geleznoj maske.1998.Original.eng.ac3
    Формат : AC-3
    Формат/Информация : Audio Coding 3
    Размер файла : 424 Мбайт
    Продолжительность : 2 ч. 12 м.
    Режим общего битрейта : Постоянный
    Общий поток : 448 Кбит/сек

    Аудио
    Формат : AC-3
    Формат/Информация : Audio Coding 3
    Расширение режима : CM (complete main)
    Параметр Endianness формата : Big
    Продолжительность : 2 ч. 12 м.
    Вид битрейта : Постоянный
    Битрейт : 448 Кбит/сек
    Каналы : 6 каналов
    Расположение каналов : Front: L C R, Side: L R, LFE
    Частота : 48,0 КГц
    Битовая глубина : 16 бит
    Метод сжатия : С потерями
    Размер потока : 424 Мбайт (100%)

    Общее
    Полное имя : D:VideoChelovek v geleznoj maske.1998.x264.BDRip.720pChelovek v geleznoj maske.1998.rus.srt
    Формат : SubRip
    Размер файла : 94,6 Кбайт

    Текст
    Формат : SubRip
    Метод сжатия : Без потерь

    Общее
    Уникальный идентификатор : 182499132527227020984711040093333208376 (0x894C0DEE331BD326A8E7DFF1C00FBD38)
    Полное имя : D:VideoChelovek v geleznoj maske.1998.x264.BDRip.720pChelovek v geleznoj maske.1998.x264.BDRip.720p.mkv
    Формат : Matroska
    Версия формата : Version 4 / Version 2
    Размер файла : 6,25 Гбайт
    Продолжительность : 2 ч. 12 м.
    Общий поток : 6765 Кбит/сек
    Дата кодирования : UTC 2014-05-24 04:46:06
    Программа кодирования : mkvmerge v6.9.1 (;Blue Panther;) 64bit built on Apr 18 2014 18:23:38
    Библиотека кодирования : libebml v1.3.0 + libmatroska v1.4.1

    Видео
    Идентификатор : 1
    Формат : AVC
    Формат/Информация : Advanced Video Codec
    Профиль формата : High@L4.1
    Параметр CABAC формата : Да
    Параметр ReFrames формата : 9 кадров
    Идентификатор кодека : V_MPEG4/ISO/AVC
    Продолжительность : 2 ч. 12 м.
    Битрейт : 4903 Кбит/сек
    Ширина : 1280 пикселей
    Высота : 694 пикселя
    Соотношение сторон : 1,85:1
    Режим частоты кадров : Постоянный
    Частота кадров : 23,976 кадра/сек
    Цветовое пространство : YUV
    Субдискретизация насыщенности : 4:2:0
    Битовая глубина : 8 бит
    Тип развёртки : Прогрессивная
    Бит/(Пиксели*Кадры) : 0.230
    Размер потока : 4,53 Гбайт (72%)
    Заголовок : BDRip -- STarankov
    Библиотека кодирования : x264 core 138 r2358 9e941d1
    Залил: msltel
    Размер скачиваемого торрента: 9.84 GB (10565224802 Bytes)


    Человек в железной маске / The Man in the Iron Mask (1998) BDRip 720p by msltel | D, P, P2, A скачать через торрент бесплатно
    загрузка...
    Рейтинг →
     (голосов: 1, оценка 5/5, голосовать можно 1 раз )

    Другие торренты по теме:

  • Человек в железной маске / The Man in the Iron Mask (1976) DVDRip от Киномагия l D
  • Золотой мой человек - В. Золотухин (2013) SATRip
  • Человек в условиях информационной агрессии (2012-2013) CAMRip
  • Человек в стеклянной будке / The Man in the Glass Booth (1975) DVDRip
  • Человек в синем / The Boy in Blue (1986) BDRemux 1080p от HDCLUB и Youtracker
  • Человек в условиях современной информационной агрессии (2012) SATRip
  • Человек в плаще / The Man with a Cloak (1951) DVDRip-AVC от -=HD-NET=-
  • Первый человек в космосе / First man in space (1959) DVDRip-AVC от -=HD-NET=- скачать через торрент бесплатно


    • Комментарии (0):

      Информация

      Информация

        Посетители, находящиеся в группе Гости, не могут оставлять комментарии в данной новости.

        ↓ Меню



        ↓ Опрос

        А Вы добавили сайт в закладки?
        Да
        Не


        Top 10 за месяц (Фильмы)