.
Авторизация | Регистрация
Хочешь лучшие торренты? Добавь свой email!
Добавить
» » Дорогая, я увеличил ребенка / Honey, I Blew Up the Kid (1992) BDRip от New-Team | P, A скачать через торрент бесплатно




    Дорогая, я увеличил ребенка / Honey, I Blew Up the Kid (1992) BDRip от New-Team | P, A скачать через торрент бесплатно

    Опубликовал: Админ | Дата: 27-02-2015, 11:10 | Просмотров: 227


    Снималось в: США
    Создали в: Touchwood Pacific Partners 1, Walt Disney Pictures
    Категория жанра: фантастика, комедия, приключения, семейный
    Создали в: 1992
    Время просмотра: 01:25:41

    Перевод текста: Профессиональный (многоголосый закадровый) (Информация о видеосервис, Первый Канал, DVD R5), Авторский (одноголосый закадровый) Василий Горчаков
    Оригинальная аудиодорожка: английский
    Субтитры подготовлены: русский

    Главный режиссер: Рэндал Клайзер / Randal Kleiser

    Актеры:
    Рик Морэнис, Марша Стрэссмен, Роберт Оливери, Дэниэл Шэликар, Джошуа Шэликар, Ллойд Бриджес, Джон Ши, Кери Рассел, Рон Кэнада, Эми О’Нил...

    Сюжет:
    Два года назад профессор Шалинский случайно уменьшил своих детей и двух соседских мальчиков. К счастью все обошлось, и он вернул ребятам прежние размеры. Время прошло, в семье Шалинских пополнение — замечательный малыш! На этот раз именно он становится случайной жертвой папиных экспериментов. Ученый изобретает аппарат, который увеличивает предметы, а мальчуган попадает под его излучение. Ребенок за считанные секунды превращается в двухметрового великана!




    Исходник: HDTV 1080i
    Тип релиза: HDTVRip
    Контейнер: AVI

    Информация о видео: 720x400 (16:9), 25 fps, XviD ~ 1464 kbps avg, 0.203 bit/pixel
    Информация о звуке: 48 kHz, Dolby Digital AC3 2.0, 192 kbps MVO Видеосервис
    Информация о звуке: 48 kHz, Dolby Digital AC3 2.0, 192 kbps MVO Первый Канал
    Информация о звуке: 48 kHz, Dolby Digital AC3 2.0, 192 kbps MVO DVD R5
    Информация о звуке: 48 kHz, Dolby Digital AC3 2.0, 192 kbps Василий Горчаков
    Информация о звуке: 48 kHz, Dolby Digital AC3 2.0, 192 kbps Английский
    Субтитры: SoftSub (srt)

    Раздача от:
    MediaInfo

    Общее
    Полное имя : Dorogaya.ya.uvelichil.rebenka.1992.HDTVRip_New-team_by_AVP_Studio.avi
    Формат : AVI
    Формат/Информация : Audio Video Interleave
    Размер файла : 1,47 Гбайт
    Продолжительность : 1 ч. 25 м.
    Общий поток : 2453 Кбит/сек
    Программа кодирования : VirtualDubModRus 1.5.10.2 (build 2542/release)
    Библиотека кодирования : VirtualDubMod build 2542/release

    Видео
    Идентификатор : 0
    Формат : MPEG-4 Visual
    Профиль формата : Advanced Simple@L5
    Параметр BVOP формата : 1
    Параметр QPel формата : Нет
    Параметр GMC формата : Без точки перехода
    Параметр матрицы формата : Выборочная
    Идентификатор кодека : XVID
    Идентификатор кодека/Подсказка : XviD
    Продолжительность : 1 ч. 25 м.
    Битрейт : 1464 Кбит/сек
    Ширина : 720 пикселей
    Высота : 400 пикселей
    Соотношение сторон : 16:9
    Частота кадров : 25,000 кадров/сек
    Цветовое пространство : YUV
    Субдискретизация насыщенности : 4:2:0
    Битовая глубина : 8 бит
    Тип развёртки : Прогрессивная
    Метод сжатия : С потерями
    Бит/(Пиксели*Кадры) : 0.203
    Размер потока : 897 Мбайт (60%)
    Библиотека кодирования : XviD 73

    Аудио #1
    Идентификатор : 1
    Формат : AC-3
    Формат/Информация : Audio Coding 3
    Расширение режима : CM (complete main)
    Параметр Endianness формата : Big
    Идентификатор кодека : 2000
    Продолжительность : 1 ч. 25 м.
    Вид битрейта : Постоянный
    Битрейт : 192 Кбит/сек
    Каналы : 2 канала
    Расположение каналов : Front: L R
    Частота : 48,0 КГц
    Битовая глубина : 16 бит
    Метод сжатия : С потерями
    Размер потока : 118 Мбайт (8%)
    Выравнивание : Разделение по промежуткам
    Продолжительность промежутка : 40 мс. (1,00 видеокадр)
    Время предзагрузки промежутка : 500 мс.

    Аудио #2
    Идентификатор : 2
    Формат : AC-3
    Формат/Информация : Audio Coding 3
    Расширение режима : CM (complete main)
    Параметр Endianness формата : Big
    Идентификатор кодека : 2000
    Продолжительность : 1 ч. 25 м.
    Вид битрейта : Постоянный
    Битрейт : 192 Кбит/сек
    Каналы : 2 канала
    Расположение каналов : Front: L R
    Частота : 48,0 КГц
    Битовая глубина : 16 бит
    Метод сжатия : С потерями
    Размер потока : 118 Мбайт (8%)
    Выравнивание : Разделение по промежуткам
    Продолжительность промежутка : 40 мс. (1,00 видеокадр)
    Время предзагрузки промежутка : 500 мс.

    Аудио #3
    Идентификатор : 3
    Формат : AC-3
    Формат/Информация : Audio Coding 3
    Профиль формата : Dolby Digital
    Расширение режима : CM (complete main)
    Параметр Endianness формата : Big
    Идентификатор кодека : 2000
    Продолжительность : 1 ч. 25 м.
    Вид битрейта : Постоянный
    Битрейт : 192 Кбит/сек
    Каналы : 2 канала
    Расположение каналов : Front: L R
    Частота : 48,0 КГц
    Битовая глубина : 16 бит
    Метод сжатия : С потерями
    Размер потока : 118 Мбайт (8%)
    Выравнивание : Разделение по промежуткам
    Продолжительность промежутка : 40 мс. (1,00 видеокадр)
    Время предзагрузки промежутка : 500 мс.

    Аудио #4
    Идентификатор : 4
    Формат : AC-3
    Формат/Информация : Audio Coding 3
    Расширение режима : CM (complete main)
    Параметр Endianness формата : Big
    Идентификатор кодека : 2000
    Продолжительность : 1 ч. 25 м.
    Вид битрейта : Постоянный
    Битрейт : 192 Кбит/сек
    Каналы : 2 канала
    Расположение каналов : Front: L R
    Частота : 48,0 КГц
    Битовая глубина : 16 бит
    Метод сжатия : С потерями
    Размер потока : 118 Мбайт (8%)
    Выравнивание : Разделение по промежуткам
    Продолжительность промежутка : 40 мс. (1,00 видеокадр)
    Время предзагрузки промежутка : 500 мс.

    Аудио #5
    Идентификатор : 5
    Формат : AC-3
    Формат/Информация : Audio Coding 3
    Профиль формата : Dolby Digital
    Расширение режима : CM (complete main)
    Параметр Endianness формата : Big
    Идентификатор кодека : 2000
    Продолжительность : 1 ч. 25 м.
    Вид битрейта : Постоянный
    Битрейт : 192 Кбит/сек
    Каналы : 2 канала
    Расположение каналов : Front: L R
    Частота : 48,0 КГц
    Битовая глубина : 16 бит
    Метод сжатия : С потерями
    Размер потока : 118 Мбайт (8%)
    Выравнивание : Разделение по промежуткам
    Продолжительность промежутка : 40 мс. (1,00 видеокадр)
    Время предзагрузки промежутка : 500 мс

    Скриншоты для ознакомления



    Залил: AVPStudio
    Размер скачиваемого торрента: 1.47 GB (1576511941 Bytes)

    Дорогая, я увеличил ребенка / Honey, I Blew Up the Kid (1992) BDRip от New-Team | P, A скачать через торрент бесплатно
    загрузка...
    Рейтинг →
     (голосов: 1, оценка 5/5, голосовать можно 1 раз )

    Другие торренты по теме:

  • Дорогая, я уменьшил детей / Honey, I Shrunk the Kids (1989) DVDRip-AVC
  • Дорогая, я увеличил ребенка / Honey I Blew Up the Kid (1992) DVDRip-AVC | P, A
  • Дорогая, я увеличил ребенка / Honey, I Blew Up the Kid (1992) BDRip от New-Team | P скачать через торрент бесплатно
  • Дорогая, я организовал нашу свадьбу (2014) SATRIp
  • Дорогая, я уменьшил детей / Honey, I Shrunk the Kids (1989) BDRip 720p HDReactor | P, A
  • Коля Абасов - Я плачу, я рыдаю дорогая скачать через торрент бесплатно
  • Дорогая, похоже, я тебя убил / Kochanie, Chyba Ci Zabiem (2014) DVDRip от Brazzass скачать через торрент бесплатно


    • Комментарии (0):

      Информация

      Информация

        Посетители, находящиеся в группе Гости, не могут оставлять комментарии в данной новости.

        ↓ Меню



        ↓ Опрос

        А Вы добавили сайт в закладки?
        Да
        Не


        Top 10 за месяц (Фильмы)