.
Авторизация | Регистрация
Хочешь лучшие торренты? Добавь свой email!
Добавить
» » Дорогая, я увеличил ребенка / Honey, I Blew Up the Kid (1992) BDRip от New-Team | P скачать через торрент бесплатно




    Дорогая, я увеличил ребенка / Honey, I Blew Up the Kid (1992) BDRip от New-Team | P скачать через торрент бесплатно

    Опубликовал: Админ | Дата: 27-02-2015, 11:10 | Просмотров: 188


    Снималось в: США
    Создали в: Touchwood Pacific Partners 1, Walt Disney Pictures
    Категория жанра: фантастика, комедия, приключения, семейный
    Создали в: 1992
    Время просмотра: 01:25:41

    Перевод текста: Профессиональный (многоголосый закадровый) Информация о видеосервис
    Оригинальная аудиодорожка: нет
    Субтитры подготовлены: нет

    Главный режиссер: Рэндал Клайзер / Randal Kleiser

    Актеры:
    Рик Морэнис, Марша Стрэссмен, Роберт Оливери, Дэниэл Шэликар, Джошуа Шэликар, Ллойд Бриджес, Джон Ши, Кери Рассел, Рон Кэнада, Эми О’Нил...

    Сюжет:
    Два года назад профессор Шалинский случайно уменьшил своих детей и двух соседских мальчиков. К счастью все обошлось, и он вернул ребятам прежние размеры. Время прошло, в семье Шалинских пополнение — замечательный малыш! На этот раз именно он становится случайной жертвой папиных экспериментов. Ученый изобретает аппарат, который увеличивает предметы, а мальчуган попадает под его излучение. Ребенок за считанные секунды превращается в двухметрового великана!




    Исходник: HDTV 1080i
    Тип релиза: HDTVRip
    Контейнер: AVI

    Информация о видео: 720x400 (16:9), 25 fps, XviD ~ 1078 kbps avg, 0.150 bit/pixel
    Информация о звуке: 48 kHz, MP3 2.0, 128 kbps MVO

    Раздача от:
    MediaInfo

    Общее
    Полное имя : Dorogaya.ya.uvelichil.rebenka.1992.HDTVRip-745_New-team_by_AVP_Studio.avi
    Формат : AVI
    Формат/Информация : Audio Video Interleave
    Размер файла : 745 Мбайт
    Продолжительность : 1 ч. 25 м.
    Общий поток : 1215 Кбит/сек
    Программа кодирования : VirtualDubModRus 1.5.10.2 (build 2542/release)
    Библиотека кодирования : VirtualDubMod build 2542/release

    Видео
    Идентификатор : 0
    Формат : MPEG-4 Visual
    Профиль формата : Advanced Simple@L5
    Параметр BVOP формата : 1
    Параметр QPel формата : Нет
    Параметр GMC формата : Без точки перехода
    Параметр матрицы формата : Выборочная
    Идентификатор кодека : XVID
    Идентификатор кодека/Подсказка : XviD
    Продолжительность : 1 ч. 25 м.
    Битрейт : 1078 Кбит/сек
    Ширина : 720 пикселей
    Высота : 400 пикселей
    Соотношение сторон : 16:9
    Частота кадров : 25,000 кадров/сек
    Цветовое пространство : YUV
    Субдискретизация насыщенности : 4:2:0
    Битовая глубина : 8 бит
    Тип развёртки : Прогрессивная
    Метод сжатия : С потерями
    Бит/(Пиксели*Кадры) : 0.150
    Размер потока : 661 Мбайт (89%)
    Библиотека кодирования : XviD 73

    Аудио
    Идентификатор : 1
    Формат : MPEG Audio
    Версия формата : Version 1
    Профиль формата : Layer 3
    Идентификатор кодека : 55
    Идентификатор кодека/Подсказка : MP3
    Продолжительность : 1 ч. 25 м.
    Вид битрейта : Постоянный
    Битрейт : 128 Кбит/сек
    Каналы : 2 канала
    Частота : 48,0 КГц
    Метод сжатия : С потерями
    Размер потока : 78,5 Мбайт (11%)
    Выравнивание : Соединение по промежуткам
    Продолжительность промежутка : 40 мс. (1,00 видеокадр)
    Время предзагрузки промежутка : 504 мс.
    Библиотека кодирования : LAME3.99r
    Залил: AVPStudio
    Размер скачиваемого торрента: 744.99 MB (781174784 Bytes)


    Дорогая, я увеличил ребенка / Honey, I Blew Up the Kid (1992) BDRip от New-Team | P скачать через торрент бесплатно
    загрузка...
    Рейтинг →
     (голосов: 1, оценка 3/5, голосовать можно 1 раз )

    Другие торренты по теме:

  • Дорогая, я уменьшил детей / Honey, I Shrunk the Kids (1989) DVDRip-AVC
  • Дорогая, я увеличил ребенка / Honey I Blew Up the Kid (1992) DVDRip-AVC | P, A
  • Дорогая, я увеличил ребенка / Honey, I Blew Up the Kid (1992) BDRip от New-Team | P, A скачать через торрент бесплатно
  • Дорогая, я организовал нашу свадьбу (2014) SATRIp
  • Дорогая, я уменьшил детей / Honey, I Shrunk the Kids (1989) BDRip 720p HDReactor | P, A
  • Коля Абасов - Я плачу, я рыдаю дорогая скачать через торрент бесплатно
  • Дорогая, похоже, я тебя убил / Kochanie, Chyba Ci Zabiem (2014) DVDRip от Brazzass скачать через торрент бесплатно


    • Комментарии (0):

      Информация

      Информация

        Посетители, находящиеся в группе Гости, не могут оставлять комментарии в данной новости.

        ↓ Меню



        ↓ Опрос

        А Вы добавили сайт в закладки?
        Да
        Не


        Top 10 за месяц (Фильмы)