.
Авторизация | Регистрация
Хочешь лучшие торренты? Добавь свой email!
Добавить
» » Дом забытых вещей / House of Last Things / The Last House (2013) WEB-DL 1080p от CINEMANIA | P | Лицензия скачать через торрент бесплатно




    Дом забытых вещей / House of Last Things / The Last House (2013) WEB-DL 1080p от CINEMANIA | P | Лицензия скачать через торрент бесплатно

    Опубликовал: Админ | Дата: 27-02-2015, 11:10 | Просмотров: 163



    Детально о кино
    Русское название: Дом забытых вещей
    Русское название в мировом прокате: House of Last Things / The Last House
    Создали в: 2013
    Категория жанра: фэнтези, триллер
    Главный режиссер: Майкл Бартлетт
    Актеры: Линдси Хоун, Блейк Беррис, АрДжей Митт, Рэнди Шульман, Дайан Далтон, Мика Нельсон, Мишель Мариана, Морин Литтрелл, Брэндон Смит, Тим Уиткомб

    Сюжет фильма:
    Иногда случаются страшные вещи, которые раз и навсегда меняют место, где они произошли, и превращают его в зловещий капкан, поджидающий все новых жертв. Именно это произошло с симпатичным жилым домом, стоящим в Портланде, штат Орегон. Когда его хозяева, музыкальный критик с женой, решают уехать в Италию, чтобы отдохнуть за границей и немного развеяться, они находят пару, которая в их отсутствие присмотрит за имуществом – Джесси и Келли.

    Буквально сразу же после прибытия временных смотрителей дом начинает принимать в их жизни весьма активное участие: Джесси быстро теряет покой и начинает вести себя более чем странно. Испуг Келли превращается в настоящий ужас, когда Джесси привозит домой ребенка, которого нашел на улице. И страшнее всего даже не то, что Джесси совершил похищение, и не то, что он сам не знает, зачем сделал это, а безразличие самого похищенного и отсутствие объявлений о пропаже ребенка. И это, как вскоре выяснится, станет лишь началом кошмара, в который превратится жизнь Келли и Джесси, и который всюду сопровождает владельцев дома.



    Снималось в: США
    Время просмотра: 01:49:51
    Тип перевода: Профессиональное (многоголосое) Лицензия

    Файл
    Тип видео: MKV
    Качество фильма: WEB-DL 1080p Itunes USA
    Информация о видео: 6875 kb/s, 1912x1072
    Информация о звуке: Russian: AC3, 256 kb/s (6 ch) / English: AC3, 384 kb/s (6 ch)
    Дополнительно: Сохранены оригинальные чаптеры как на Blu-Ray
    Размер скачиваемого торрента: 4.32 GB
    Скачать: Сэмпл

    Релиз группы:




    NFO
    Общее
    House.Of.Last.Things.2013.WEB-DL.1080p.CINEMANIA.mkv
    Формат : Matroska
    Версия формата : Version 4 / Version 2
    Размер файла : 4,32 Гбайт
    Продолжительность : 1 ч. 49 м.
    Общий поток : 5627 Кбит/сек
    Название фильма : Release Group CINEMANIA
    Дата кодирования : UTC 2014-05-14 18:48:37
    Программа кодирования : mkvmerge v6.9.1 (;Blue Panther;) 64bit built on Apr 18 2014 18:23:38
    Библиотека кодирования : libebml v1.3.0 + libmatroska v1.4.1

    Видео
    Идентификатор : 1
    Формат : AVC
    Формат/Информация : Advanced Video Codec
    Профиль формата : High@L4.0
    Параметр CABAC формата : Да
    Параметр ReFrames формата : 4 кадра
    Идентификатор кодека : V_MPEG4/ISO/AVC
    Продолжительность : 1 ч. 49 м.
    Битрейт : 6875 Кбит/сек
    Ширина : 1912 пикселей
    Высота : 1072 пикселя
    Соотношение сторон : 16:9
    Режим частоты кадров : Постоянный
    Частота кадров : 23,976 кадра/сек
    Цветовое пространство : YUV
    Субдискретизация насыщенности : 4:2:0
    Битовая глубина : 8 бит
    Тип развёртки : Прогрессивная
    Бит/(Пиксели*Кадры) : 0.099
    Размер потока : 3,74 Гбайт (87%)
    Заголовок : Release Group CINEMANIA
    Язык : English
    Default : Да
    Forced : Нет
    Основные цвета : BT.709
    Характеристики трансфера : BT.709
    Коэффициенты матрицы : BT.709

    Аудио #1
    Идентификатор : 2
    Формат : AC-3
    Формат/Информация : Audio Coding 3
    Расширение режима : CM (complete main)
    Параметр Endianness формата : Big
    Идентификатор кодека : A_AC3
    Продолжительность : 1 ч. 49 м.
    Вид битрейта : Постоянный
    Битрейт : 256 Кбит/сек
    Каналы : 6 каналов
    Расположение каналов : Front: L C R, Side: L R, LFE
    Частота : 48,0 КГц
    Битовая глубина : 16 бит
    Метод сжатия : С потерями
    Размер потока : 201 Мбайт (5%)
    Заголовок : Лицензия
    Язык : Russian
    Default : Да
    Forced : Да

    Аудио #2
    Идентификатор : 3
    Формат : AC-3
    Формат/Информация : Audio Coding 3
    Расширение режима : CM (complete main)
    Параметр Endianness формата : Big
    Идентификатор кодека : A_AC3
    Продолжительность : 1 ч. 49 м.
    Вид битрейта : Постоянный
    Битрейт : 384 Кбит/сек
    Каналы : 6 каналов
    Расположение каналов : Front: L C R, Side: L R, LFE
    Частота : 48,0 КГц
    Битовая глубина : 16 бит
    Метод сжатия : С потерями
    Размер потока : 302 Мбайт (7%)
    Язык : English
    Default : Нет
    Forced : Нет

    Меню
    00:00:00.000 : en:Chapter 1
    00:07:57.000 : en:Chapter 2
    00:15:55.000 : en:Chapter 3
    00:24:04.000 : en:Chapter 4
    00:33:31.000 : en:Chapter 5
    00:43:21.000 : en:Chapter 6
    00:51:46.000 : en:Chapter 7
    01:00:34.000 : en:Chapter 8
    01:11:59.000 : en:Chapter 9
    01:21:28.000 : en:Chapter 10
    01:32:15.000 : en:Chapter 11
    01:39:40.000 : en:Chapter 12
    01:47:06.000 : en:Chapter 13

    Залил: DGEKIGAN
    Размер скачиваемого торрента: 4.32 GB (4636355867 Bytes)

    Дом забытых вещей / House of Last Things / The Last House (2013) WEB-DL 1080p от CINEMANIA | P | Лицензия скачать через торрент бесплатно
    загрузка...
    Рейтинг →
     (голосов: 1, оценка 4/5, голосовать можно 1 раз )

    Другие торренты по теме:

  • Дом забытых вещей (2013) HDRip лицензия скачать через торрент бесплатно
  • Дом забытых вещей / House of Last Things (2013) DVDRip | Лицензия скачать через торрент бесплатно
  • Дом забытых вещей / House of Last Things (2013) WEB-DL 720p | Лицензия
  • Дом забытых вещей / House of Last Things (2013) DVD5 от New-Team | P | Лицензия скачать через торрент бесплатно


    • Комментарии (0):

      Информация

      Информация

        Посетители, находящиеся в группе Гости, не могут оставлять комментарии в данной новости.

        ↓ Меню



        ↓ Опрос

        А Вы добавили сайт в закладки?
        Да
        Не


        Top 10 за месяц (Фильмы)