.
Авторизация | Регистрация
Хочешь лучшие торренты? Добавь свой email!
Добавить
» » Майк и Молли / Mike and Molly (2013) HDTVRip 720p | Кураж-Бамбей скачать торрент бесплатно




    Майк и Молли / Mike and Molly (2013) HDTVRip 720p | Кураж-Бамбей скачать торрент бесплатно

    Опубликовал: Админ | Дата: 27-02-2015, 11:10 | Просмотров: 183

    Майк и Молли / Mike and Molly

    Русское название: Майк и Молли
    Русское название в мировом прокате: Mike and Molly
    Создали в: 2013
    Категория жанра: Комедия


    Главный режиссер: Джеймс Берроуз

    Актеры: Мелисса МакКарти, Билли Гарделл, Рено Уилсон, Кэти Миксон, Ньямби Ньямби, Свузи Керц, Клио Кинг, Дэвид Энтони Хиггинс, Холли Робинсон Пит, Реджинальд ВелДжонсон, Шерил Хокер, Лаура Кувер, Френсис Гуинан, Ламонт Томпсон, Брендан Патрик Коннор, Марианн Мюллерлейл, Кэйден Кесслер, Уильям Сэндерсон, Серина Винсент, Таккер Албрицци, Закари Балагот, Чедни Брюэр, Джеймс МакЭлрой, Киара Мухаммад, Кэти Наглер, Джон О’Брайэн


    Сюжет фильма:
    Офицер Майк Биггс – полицейский с добрым сердцем, который искренне желает сбросить вес. Напарник Майка, офицер Карл Макмиллан, худой и болтливый всезнайка, который, несмотря на поддразнивания, поддерживает Майка на его пути к стройности и любви. Во время одного из собраний Майк встретил Молли Флинн, милую учительницу четвертого класса, которая относится к своим пышным формам со здоровым юмором. Сделать правильный выбор для Молли не всегда просто, потому что она живет со своей сексуальной старшей сестрой Викторией и матерью Джойс. Обе они выставляют напоказ свой здоровый аппетит и стройные фигуры. Майку также приходиться сталкиваться с искушением в закусочной, которую он часто посещает с Карлом. Там они познакомились с сенегальским официантом Самюэлем, для которого диета – незнакомая концепция. Для Майка и Молли, благодаря их взаимной любви к пирогам и желанию сопротивляться им, знакомство друг с другом может быть ценнее веса.





    Снималось в: США, Bonanza Productions, Chuck Lorre Productions, Warner Bros. Television
    Время просмотра: 17 x ~ 00:20:00
    Перевод текста: Профессиональный одноголосый (Кураж-Бамбей)


    Качество фильма: HDTVRip 720p
    Информация о видео: MPEG-4 AVC, ~ 4400 Кбит/с, 1280x720
    Информация о звуке: Русский (АС3, 2 ch, 192 Кбит/с), английский (АС3, 6 ch, 384 Кбит/с)
    Субтитры: Русские, английские


    Скриншоты для ознакомления



    MediaInfo
    Общее
    Уникальный идентификатор : 172191193095167251451903508146567358272 (0x818AD1474C591DCF9BA995CEDADDA740)
    Полное имя : E:Mike and Molly 4MM.S04E01.HDTVRip.720p.mkv
    Формат : Matroska
    Версия формата : Version 2
    Размер файла : 732 Мбайт
    Продолжительность : 20 м.
    Общий поток : 5047 Кбит/сек
    Дата кодирования : UTC 2013-12-15 19:15:14
    Программа кодирования : mkvmerge v6.6.0 (;The Edge Of The In Between;) built on Dec 1 2013 17:55:00
    Библиотека кодирования : libebml v1.3.0 + libmatroska v1.4.1

    Видео
    Идентификатор : 1
    Формат : AVC
    Формат/Информация : Advanced Video Codec
    Профиль формата : High@L4.1
    Параметр CABAC формата : Да
    Параметр ReFrames формата : 8 кадров
    Идентификатор кодека : V_MPEG4/ISO/AVC
    Продолжительность : 20 м.
    Битрейт : 4370 Кбит/сек
    Ширина : 1280 пикселей
    Высота : 720 пикселей
    Соотношение сторон : 16:9
    Режим частоты кадров : Постоянный
    Частота кадров : 23,976 кадра/сек
    Цветовое пространство : YUV
    Субдискретизация насыщенности : 4:2:0
    Битовая глубина : 8 бит
    Тип развёртки : Прогрессивная
    Бит/(Пиксели*Кадры) : 0.198
    Размер потока : 634 Мбайт (87%)
    Библиотека кодирования : x264 core 138 r2358 9e941d1
    Настройки программы : cabac=1 / ref=8 / deblock=1:0:0 / analyse=0x3:0x133 / me=umh / subme=9 / psy=1 / psy_rd=1.00:0.00 / mixed_ref=1 / me_range=16 / chroma_me=1 / trellis=2 / 8x8dct=1 / cqm=0 / deadzone=21,11 / fast_pskip=1 / chroma_qp_offset=-2 / threads=18 / lookahead_threads=1 / sliced_threads=0 / nr=0 / decimate=1 / interlaced=0 / bluray_compat=0 / constrained_intra=0 / bframes=3 / b_pyramid=2 / b_adapt=2 / b_bias=0 / direct=3 / weightb=1 / open_gop=0 / weightp=2 / keyint=250 / keyint_min=23 / scenecut=40 / intra_refresh=0 / rc_lookahead=60 / rc=crf / mbtree=1 / crf=18.0 / qcomp=0.60 / qpmin=0 / qpmax=69 / qpstep=4 / ip_ratio=1.40 / aq=1:1.00
    Язык : English
    Default : Да
    Forced : Нет

    Аудио #1
    Идентификатор : 2
    Формат : AC-3
    Формат/Информация : Audio Coding 3
    Расширение режима : CM (complete main)
    Параметр Endianness формата : Big
    Идентификатор кодека : A_AC3
    Продолжительность : 20 м.
    Вид битрейта : Постоянный
    Битрейт : 192 Кбит/сек
    Каналы : 2 канала
    Расположение каналов : Front: L R
    Частота : 48,0 КГц
    Битовая глубина : 16 бит
    Метод сжатия : С потерями
    Размер потока : 27,8 Мбайт (4%)
    Заголовок : Kuraj-Bambey
    Язык : Russian
    Default : Да
    Forced : Нет

    Аудио #2
    Идентификатор : 3
    Формат : AC-3
    Формат/Информация : Audio Coding 3
    Расширение режима : CM (complete main)
    Параметр Endianness формата : Big
    Идентификатор кодека : A_AC3
    Продолжительность : 20 м.
    Вид битрейта : Постоянный
    Битрейт : 384 Кбит/сек
    Каналы : 6 каналов
    Расположение каналов : Front: L C R, Side: L R, LFE
    Частота : 48,0 КГц
    Битовая глубина : 16 бит
    Метод сжатия : С потерями
    Размер потока : 55,7 Мбайт (8%)
    Заголовок : Original
    Язык : English
    Default : Нет
    Forced : Нет

    Текст #1
    Идентификатор : 4
    Формат : UTF-8
    Идентификатор кодека : S_TEXT/UTF8
    Идентификатор кодека/Информация : UTF-8 Plain Text
    Заголовок : ММ-team (Notabenoid)
    Язык : Russian
    Default : Нет
    Forced : Нет

    Текст #2
    Идентификатор : 5
    Формат : UTF-8
    Идентификатор кодека : S_TEXT/UTF8
    Идентификатор кодека/Информация : UTF-8 Plain Text
    Заголовок : Mishto, irver (Notabenoid)
    Язык : Russian
    Default : Нет
    Forced : Нет

    Текст #3
    Идентификатор : 6
    Формат : UTF-8
    Идентификатор кодека : S_TEXT/UTF8
    Идентификатор кодека/Информация : UTF-8 Plain Text
    Заголовок : Rafael UPD (Addic7ed)
    Язык : English
    Default : Нет
    Forced : Нет

    Размер скачиваемого торрента: 11.00 GB (11808663760 Bytes)

    Майк и Молли / Mike and Molly (2013) HDTVRip 720p | Кураж-Бамбей торрент скачать бесплатно
    загрузка...
    Рейтинг →
     (голосов: 1, оценка 4/5, голосовать можно 1 раз )

    Другие торренты по теме:

  • Майк и Молли / Mike Molly (2012) HDTVRip от TORRENT-45 | Кураж-Бамбей
  • Майк и Молли / Mike and Molly (2010-2013) HDTVRip | Кураж-Бамбей
  • Майк и Молли / Mike and Molly (2013) HDTVRip 720p | Кураж-Бамбей
  • Майк и Молли / Mike and Molly (2013) WEB-DLRip | Кураж-Бамбей скачать через торрент бесплатно
  • Майк и Молли / Mike and Molly (2013) WEB-DLRip | Кураж-Бамбей скачать через торрент бесплатно
  • Майк и Молли / Mike and Molly (2014-2015) HDTVRip 720p | Кураж-Бамбей
  • Майк и Молли / Mike and Molly (2014-2015) HDTVRip | Кураж-Бамбей
  • Майк и Молли / Mike Molly (2016) HDTVRip | P1 | Кураж-Бамбей


    • Комментарии (0):

      Информация

      Информация

        Посетители, находящиеся в группе Гости, не могут оставлять комментарии в данной новости.

        ↓ Меню



        ↓ Опрос

        А Вы добавили сайт в закладки?
        Да
        Не


        Top 10 за месяц (Фильмы)