.
Авторизация | Регистрация
Хочешь лучшие торренты? Добавь свой email!
Добавить
» » Царство / Reign (2013) WEB-DLRip | Amedia скачать торрент бесплатно




    Царство / Reign (2013) WEB-DLRip | Amedia скачать торрент бесплатно

    Опубликовал: Админ | Дата: 27-02-2015, 11:10 | Просмотров: 397



    Детально о кино
    Русское название: Царство
    Русское название в мировом прокате: Reign
    Создали в: 2013
    Категория жанра: фэнтези, драма
    Главный режиссер: Мэттью Хатингс, Брэд Силберлинг
    Актеры: Аделаида Кейн, Тоби Регбо, Торранс Кумбс, Меган Фоллоуз, Алан Ван Спрэнг, Селина Синден, Кэйтлин Стэйси, Анна Попплуэлл

    Сюжет фильма:
    Действия разворачиваются в период юности Королевы Шотландии Марии Стюарт, которая должна стать супругой принца Франциска, сына короля Генриха второго, чтобы укрепить политический союз между державами. Мария прибывает во Францию в сопровождении своих фрейлин и знакомится с будущим супругом. Принц явно не заинтересован в этом союзе и всячески пытается ему помешать, так как уже увлечен одной из дворцовых красавиц. Помимо всех интриг и заговоров на политическом уровне со стороны противников свадьбы, незаконнорожденный сын Короля, Бэш, также принимает меры, чтобы разбить пару помолвленных - Марии и Франциска.




    Снималось в: США
    Киностудия: CBS Television Studios, World 2000 Entertainment, Octagon Films
    Время просмотра: 21 х 00:42:00
    Перевод текста: Профессиональный многоголосый - Amedia

    Файл
    Кодек для видео: XviD
    Качество фильма: WEB-DLRip
    Информация о видео: 720x400 (1.80:1), 23.976 fps, XviD build 50 ~1799 kbps avg, 0.26 bit/pixel
    Информация о звуке: 48 kHz, AC3 Dolby Digital, 3/2 (L,C,R,l,r) + LFE ch, ~384.00 kbps avg
    Субтитры: нет

    Семпл

    MediaInfo

    Общее
    Полное имя : K:Царство. 2013. WEB-DLRipЦарство. 2013. WEB-DLRip. 4 серия..avi
    Формат : AVI
    Формат/Информация : Audio Video Interleave
    Размер файла : 646 Мбайт
    Продолжительность : 41 м.
    Общий поток : 2192 Кбит/сек
    Программа кодирования : VirtualDubMod 1.5.10.3 | www.virtualdub-fr.org || (build 2550/release)
    Библиотека кодирования : VirtualDubMod build 2550/release

    Видео
    Идентификатор : 0
    Формат : MPEG-4 Visual
    Профиль формата : Advanced Simple@L5
    Параметр BVOP формата : 2
    Параметр QPel формата : Нет
    Параметр GMC формата : Без точки перехода
    Параметр матрицы формата : Выборочная
    Идентификатор кодека : XVID
    Идентификатор кодека/Подсказка : XviD
    Продолжительность : 41 м.
    Битрейт : 1799 Кбит/сек
    Ширина : 720 пикс.
    Высота : 400 пикс.
    Соотношение сторон : 16:9
    Частота кадров : 23,976 кадр/сек
    Цветовое пространство : YUV
    Подвыборка цветности : 4:2:0
    Битовая глубина : 8 бит
    Тип развёртки : Прогрессивная
    Метод сжатия : С потерями
    Бит/(Пиксели*Кадры) : 0.261
    Размер потока : 530 Мбайт (82%)
    Библиотека кодирования : XviD 1.2.1 (UTC 2008-12-04)

    Аудио
    Идентификатор : 1
    Формат : AC-3
    Формат/Информация : Audio Coding 3
    Расширение режима : CM (complete main)
    Идентификатор кодека : 2000
    Продолжительность : 41 м.
    Вид битрейта : Постоянный
    Битрейт : 384 Кбит/сек
    Каналы : 6 каналов
    Расположение каналов : Front: L C R, Side: L R, LFE
    Частота : 48,0 КГц
    Битовая глубина : 16 бит
    Метод сжатия : С потерями
    Размер потока : 113 Мбайт (18%)
    Выравнивание : Разделение по промежуткам
    Продолжительность промежутка : 42 мс. (1,00 видеокадр)
    Время предзагрузки промежутка : 500 ms

    Скриншоты для ознакомления

    Залил: fedorjuk
    Размер скачиваемого торрента: 13.45 GB (14442766336 Bytes)

    Царство / Reign (2013) WEB-DLRip | Amedia торрент скачать бесплатно
    загрузка...
    Рейтинг →
     (голосов: 1, оценка 5/5, голосовать можно 1 раз )

    Другие торренты по теме:

  • Царство / Kingdom (2012) HDTVRip | AniFilm
  • Орбини Мавро - Славянское царство (2010) DjVu, PDF
  • OST - Царство небесное / Kingdom Of Heaven Soundtrack (2007) MP3
  • Царство кошмара: В конце... / Nightmare Realm: In the End... CE (2012) PC
  • Тор: Царство тьмы / Thor: The Dark World (2013) HD | Трейлер
  • Теория заговора: Легендарное царство (2011) TVRip
  • Теория заговора: Черноморская Атлантида: Царство Аида (2012) TVRip
  • Царство небесное / Kingdom of Heaven (2005) BDRip 1080p | Режиссерская версия / Directors cut


    • Комментарии (0):

      Информация

      Информация

        Посетители, находящиеся в группе Гости, не могут оставлять комментарии в данной новости.

        ↓ Меню



        ↓ Опрос

        А Вы добавили сайт в закладки?
        Да
        Не


        Top 10 за месяц (Фильмы)