.
Авторизация | Регистрация
Хочешь лучшие торренты? Добавь свой email!
Добавить
» » Помпеи / Pompeii (2014) BDRip 1080p | iTunes скачать торрент бесплатно




    Помпеи / Pompeii (2014) BDRip 1080p | iTunes скачать торрент бесплатно

    Опубликовал: Админ | Дата: 27-02-2015, 11:10 | Просмотров: 198



    Детально о кино
    Русское название: Помпеи
    Русское название в мировом прокате: Pompeii
    Создали в: 2014
    Категория жанра: Приключения, боевик, драма, мелодрама
    Главный режиссер: Пол У. С. Андерсон
    Актеры:Саша Ройз, Кэрри-Энн Мосс, Адевале Акинойе-Агбаже, Эмили Браунинг, Джессика Лукас, Кифер Сазерленд, Кит Харингтон, Джо Пинг, Джаред Харрис, Карри Грэм

    Сюжет фильма: История любви раба Майло и благородной Кассии, обрученной с римским сенатором, на фоне извержения Везувия, которое навсегда стерло с лица земли древнеримский город Помпеи...



    Снималось в: США, Германия, Канада, Constantin Film Produktion GmbH, Don Carmody Productions
    Время просмотра: 01:44:59
    Перевод текста: Профессиональный (полное дублирование) - iTunes

    Файл
    Качество фильма: BDRip 1080p
    Тип видео: MKV
    Информация о видео: MPEG4/AVC, 1920х800 (2.40:1), 11.4 Мбит/сек, 23.976 кадра/сек
    Информация о звуке 1: AC3, 6 канала, 384 Кбит/сек | iTunes
    Информация о звуке 2: AC3, 6 каналов, 640 Кбит/сек | Английский
    Субтитры: Английские (Full, SDH)
    Навигация по главам: Есть
    Информация о видеоряд: CHD

    MediaInfo:
    Общее
    Уникальный идентификатор : 245052254358355868170491538026961981895 (0xB85B58F3317D271DB1E01AE5649251C7)
    Полное имя : Pompeii. (2014) BDRip 1080p.mkv
    Формат : Matroska
    Версия формата : Version 2
    Размер файла : 9,13 Гбайт
    Продолжительность : 1 ч. 44 м.
    Общий поток : 12,5 Мбит/сек
    Название фильма : Pompeii.2014
    Дата кодирования : UTC 2014-05-13 10:49:11
    Программа кодирования : mkvmerge v5.8.0 (;No Sleep / Pillow;) built on Sep 2 2012 15:37:04
    Библиотека кодирования : libebml v1.2.3 + libmatroska v1.3.0

    Видео
    Идентификатор : 1
    Формат : AVC
    Формат/Информация : Advanced Video Codec
    Профиль формата : High@L4.1
    Параметр CABAC формата : Да
    Параметр ReFrames формата : 5 кадров
    Идентификатор кодека : V_MPEG4/ISO/AVC
    Продолжительность : 1 ч. 44 м.
    Битрейт : 11,4 Мбит/сек
    Ширина : 1920 пикселей
    Высота : 800 пикселей
    Соотношение сторон : 2,40:1
    Режим частоты кадров : Постоянный
    Частота кадров : 23,976 кадра/сек
    Цветовое пространство : YUV
    Субдискретизация насыщенности : 4:2:0
    Битовая глубина : 8 бит
    Тип развёртки : Прогрессивная
    Бит/(Пиксели*Кадры) : 0.311
    Размер потока : 8,20 Гбайт (90%)
    Библиотека кодирования : x264 core 138 r2358 9e941d1
    Настройки программы : cabac=1 / ref=5 / deblock=1:-3:-3 / analyse=0x3:0x113 / me=umh / subme=11 / psy=1 / psy_rd=1.05:0.10 / mixed_ref=1 / me_range=48 / chroma_me=1 / trellis=2 / 8x8dct=1 / cqm=0 / deadzone=21,11 / fast_pskip=0 / chroma_qp_offset=-2 / threads=18 / lookahead_threads=1 / sliced_threads=0 / nr=0 / decimate=1 / interlaced=0 / bluray_compat=0 / constrained_intra=0 / bframes=6 / b_pyramid=2 / b_adapt=2 / b_bias=0 / direct=3 / weightb=1 / open_gop=0 / weightp=2 / keyint=250 / keyint_min=23 / scenecut=40 / intra_refresh=0 / rc_lookahead=40 / rc=2pass / mbtree=0 / bitrate=11445 / ratetol=2.0 / qcomp=0.70 / qpmin=0 / qpmax=69 / qpstep=4 / cplxblur=20.0 / qblur=0.5 / vbv_maxrate=40000 / vbv_bufsize=30000 / nal_hrd=none / ip_ratio=1.40 / pb_ratio=1.30 / aq=2:1.00
    Язык : English
    Default : Да
    Forced : Нет

    Аудио #1
    Идентификатор : 2
    Формат : AC-3
    Формат/Информация : Audio Coding 3
    Расширение режима : CM (complete main)
    Параметр Endianness формата : Big
    Идентификатор кодека : A_AC3
    Продолжительность : 1 ч. 44 м.
    Вид битрейта : Постоянный
    Битрейт : 384 Кбит/сек
    Каналы : 6 каналов
    Расположение каналов : Front: L C R, Side: L R, LFE
    Частота : 48,0 КГц
    Битовая глубина : 16 бит
    Метод сжатия : С потерями
    Размер потока : 288 Мбайт (3%)
    Заголовок : iTunes
    Язык : Russian
    Default : Да
    Forced : Нет

    Аудио #2
    Идентификатор : 3
    Формат : AC-3
    Формат/Информация : Audio Coding 3
    Расширение режима : CM (complete main)
    Параметр Endianness формата : Big
    Идентификатор кодека : A_AC3
    Продолжительность : 1 ч. 44 м.
    Вид битрейта : Постоянный
    Битрейт : 640 Кбит/сек
    Каналы : 6 каналов
    Расположение каналов : Front: L C R, Side: L R, LFE
    Частота : 48,0 КГц
    Битовая глубина : 16 бит
    Метод сжатия : С потерями
    Размер потока : 481 Мбайт (5%)
    Заголовок : Eng
    Язык : English
    Default : Нет
    Forced : Нет

    Текст #1
    Идентификатор : 4
    Формат : UTF-8
    Идентификатор кодека : S_TEXT/UTF8
    Идентификатор кодека/Информация : UTF-8 Plain Text
    Заголовок : Full
    Язык : English
    Default : Нет
    Forced : Нет

    Текст #2
    Идентификатор : 5
    Формат : UTF-8
    Идентификатор кодека : S_TEXT/UTF8
    Идентификатор кодека/Информация : UTF-8 Plain Text
    Заголовок : SDH
    Язык : English
    Default : Нет
    Forced : Нет

    Меню
    00:00:00.000 : en:00:00:00.000
    00:05:27.077 : en:00:05:27.077
    00:09:51.674 : en:00:09:51.674
    00:15:58.457 : en:00:15:58.457
    00:19:52.858 : en:00:19:52.858
    00:26:45.103 : en:00:26:45.103
    00:32:36.621 : en:00:32:36.621
    00:38:18.838 : en:00:38:18.838
    00:47:35.811 : en:00:47:35.811
    00:52:17.718 : en:00:52:17.718
    01:03:25.218 : en:01:03:25.218
    01:09:02.930 : en:01:09:02.930
    01:17:27.309 : en:01:17:27.309
    01:23:46.521 : en:01:23:46.521
    01:30:04.149 : en:01:30:04.149
    01:35:08.119 : en:01:35:08.119

    Скриншоты для ознакомления:


    Релиз подготовил:
    Размер скачиваемого торрента: 9.13 GB (9805352362 Bytes)

    Помпеи / Pompeii (2014) BDRip 1080p | iTunes торрент скачать бесплатно
    загрузка...
    Рейтинг →
     (голосов: 1, оценка 3/5, голосовать можно 1 раз )

    Другие торренты по теме:

  • Последние дни Помпеи / The last days of Pompeii (1959) DVDRip-AVC от Torrent-Xzona
  • Помпеи (2014) скачать через торрент бесплатно
  • Помпеи / Pompeii (2014) HDTV 1080i | Трейлер скачать через торрент бесплатно
  • Помпеи / Pompei (2007) BDRip | P
  • Помпеи / Pompeii (2014) CAMRip скачать через торрент бесплатно
  • OST - Помпеи / Pompeii (2014) MP3 скачать через торрент бесплатно
  • Помпеи: Апокалипсис / Apocalypse Pompeii (2014) HDRip | Sub
  • Помпеи / Pompeii (2014) TS *PROPER* скачать через торрент бесплатно


    • Комментарии (0):

      Информация

      Информация

        Посетители, находящиеся в группе Гости, не могут оставлять комментарии в данной новости.

        ↓ Меню



        ↓ Опрос

        А Вы добавили сайт в закладки?
        Да
        Не


        Top 10 за месяц (Фильмы)