.
Авторизация | Регистрация
Хочешь лучшие торренты? Добавь свой email!
Добавить
» » Маленькие негодяи спасают положение / The Little Rascals Save the Day (2014) BDRip-AVC | iPad | D скачать торрент бесплатно




    Маленькие негодяи спасают положение / The Little Rascals Save the Day (2014) BDRip-AVC | iPad | D скачать торрент бесплатно

    Опубликовал: Админ | Дата: 27-02-2015, 11:10 | Просмотров: 242



    Маленькие негодяи спасают положение / The Little Rascals Save the Day (2014) BDRip-AVC | iPad | D


    Русское название: Маленькие негодяи спасают положение
    Русское название в мировом прокате: The Little Rascals Save the Day
    Создали в: 2014
    Категория жанра: комедия, семейный
    Главный режиссер: Алекс Замм
    Актеры: Дорис Робертс, Грег Джерманн, Лекс Медлин, Валери Эзлинн, Джет Юргенсмейер, Дрю Джастис, Коннор Берри, Дженна Ортега, Айзиа Фредерикс, Кемден Грэй

    Сюжет фильма:
    Маленькие негодяи — серия комедийных фильмов о группе соседских мальчиков и девочек и об их приключениях вместе.



    Снималось в: США
    Киностудия: Capital Arts Entertainment, Universal Pictures

    Время просмотра: 01:37:43
    Перевод текста: Русский дублированный

    Файл
    Кодек для видео: H.264
    Качество фильма: BDRip 576p
    Информация о видео: 1024x576 (16:9) at 23.976 fps, AVC at 3600 kbps
    Информация о звуке:
    1: АAС 2.0 148 kbps - Русский дублированный
    2: АAС 2.0 148 kbps - Английский
    Субтитры: отсутствуют

    MI

    General
    Complete name : I:modoutThe.Little.Rascals.Save.the.Day.2014.576p.D.m4v
    Format : MPEG-4
    Codec ID : M4V
    File size : 2.68 GiB
    Duration : 1h 37mn
    Overall bit rate mode : Variable
    Overall bit rate : 3 926 Kbps
    Movie name : Маленькие негодяи спасают положение
    Performer : Alex Zamm
    Genre : Kids Family
    ContentType : Short Film
    Deion : Маленькие негодяи — серия комедийных фильмов о группе соседских мальчиков и девочек и об их приключениях вместе.
    Recorded date : UTC 2014-03-18 07:00:00
    Encoded date : UTC 2014-05-13 11:49:07
    Tagged date : UTC 2014-05-13 12:29:37
    Copyright : Capital Arts Entertainment, Universal Pictures
    Cover : Yes
    ContentRating : mpaa|PG|200|

    Title/Sort : The Little Rascals Save the Day
    LongDeion : Маленькие негодяи — серия комедийных фильмов о группе соседских мальчиков и девочек и об их приключениях вместе.
    AppleStoreCatalogID : 792312095
    Vendor : Apple:vendor_id:2014-715092

    Video
    ID : 1
    Format : AVC
    Format/Info : Advanced Video Codec
    Format profile : High@L4.1
    Format settings, CABAC : Yes
    Format settings, ReFrames : 12 frames
    Codec ID : avc1
    Codec ID/Info : Advanced Video Coding
    Duration : 1h 37mn
    Bit rate : 3 616 Kbps
    Maximum bit rate : 13.2 Mbps
    Width : 1 024 pixels
    Height : 576 pixels
    Display aspect ratio : 16:9
    Frame rate mode : Constant
    Frame rate : 23.976 fps
    Color space : YUV
    Chroma subsampling : 4:2:0
    Bit depth : 8 bits
    Scan type : Progressive
    Bits/(Pixel*Frame) : 0.256
    Stream size : 2.47 GiB (92%)
    Title : The.Little.Rascals.Save.the.Day.2014
    Language : English
    Encoded date : UTC 2014-05-13 11:49:07
    Tagged date : UTC 2014-05-13 11:49:17

    Audio #1
    ID : 2
    Format : AAC
    Format/Info : Advanced Audio Codec
    Format profile : LC
    Codec ID : 40
    Duration : 1h 37mn
    Bit rate mode : Variable
    Bit rate : 148 Kbps
    Maximum bit rate : 227 Kbps
    Channel(s) : 2 channels
    Channel positions : Front: L R
    Sampling rate : 48.0 KHz
    Compression mode : Lossy
    Stream size : 103 MiB (4%)
    Title : Dub
    Language : Russian
    Encoded date : UTC 2014-05-13 11:43:57
    Tagged date : UTC 2014-05-13 11:49:17

    Audio #2
    ID : 3
    Format : AAC
    Format/Info : Advanced Audio Codec
    Format profile : LC
    Codec ID : 40
    Duration : 1h 37mn
    Bit rate mode : Variable
    Bit rate : 150 Kbps
    Maximum bit rate : 226 Kbps
    Channel(s) : 2 channels
    Channel positions : Front: L R
    Sampling rate : 48.0 KHz
    Compression mode : Lossy
    Stream size : 105 MiB (4%)
    Title : Original
    Language : English
    Encoded date : UTC 2014-05-13 11:47:25
    Tagged date : UTC 2014-05-13 11:49:17

    Menu
    ID : 4
    Codec ID : text
    Duration : 1h 37mn
    Encoded date : UTC 2014-05-13 11:49:28
    Tagged date : UTC 2014-05-13 11:49:28
    Bit rate mode : CBR

    x264

    x264 info: frame I:1808 Avg QP:16.27 size:115402
    x264 info: frame P:34743 Avg QP:18.71 size: 37128
    x264 info: frame B:104041 Avg QP:21.08 size: 11070
    x264 info: consecutive B-frames: 4.0% 3.2% 11.3% 30.4% 20.9% 26.0% 2.6% 0.8% 0.4% 0.2% 0.1% 0.1% 0.0% 0.1% 0.0%
    x264 info: mb I I16..4: 7.9% 53.5% 38.6%
    x264 info: mb P I16..4: 0.6% 7.9% 2.5% P16..4: 27.6% 33.5% 16.9% 6.0% 1.5% skip: 3.6%
    x264 info: mb B I16..4: 0.0% 0.8% 0.3% B16..8: 31.5% 21.3% 4.1% direct: 5.8% skip:36.1% L0:34.5% L1:42.7% BI:22.8%
    x264 info: 8x8 transform intra:67.5% inter:39.7%
    x264 info: coded y,uvDC,uvAC intra: 93.9% 90.4% 77.0% inter: 24.0% 19.4% 10.8%
    x264 info: i16 v,h,dc,p: 14% 10% 12% 64%
    x264 info: i8 v,h,dc,ddl,ddr,vr,hd,vl,hu: 14% 10% 5% 8% 12% 13% 12% 13% 13%
    x264 info: i4 v,h,dc,ddl,ddr,vr,hd,vl,hu: 13% 10% 4% 9% 14% 14% 12% 11% 13%
    x264 info: i8c dc,h,v,p: 37% 21% 22% 19%
    x264 info: Weighted P-Frames: Y:1.5% UV:0.9%
    x264 info: ref P L0: 61.3% 12.4% 12.0% 4.6% 3.1% 2.1% 1.5% 0.9% 0.7% 0.6% 0.5% 0.4% 0.1% 0.0%
    x264 info: ref B L0: 88.1% 6.2% 2.6% 1.1% 0.7% 0.5% 0.3% 0.2% 0.1% 0.1% 0.1%
    x264 info: ref B L1: 94.8% 5.2%
    x264 info: kb/s:3615.82
    iTunes Tags


    Sort Name: The Little Rascals Save the Day
    XID: Apple:vendor_id:2014-715092
    Content ID: 792312095
    Copyright: Capital Arts Entertainment, Universal Pictures
    ScreenWriters: Уильям Робертсон, Алекс Замм
    Producers: Майк Эллиот, Джерри П. Джейкобс, Лиза Гудинг
    Director: Алекс Зам
    Cast: Дорис Робертс, Грег Джерманн, Лекс Медлин, Валери Эзлинн, Джет Юргенсмейер, Дрю Джастис, Коннор Берри, Дженна Ортега, Айзиа Фредерикс, Кемден Грэй // Drew Justice (Alfalfa), Rio Mangini (Woim), Jenna Ortega (Mary Anne), Eden Wood (Darla), Jet Jurgensmeyer (Spanky), Grant Palmer II (Waldo), Camden Gray (Porky), Isaiah Fredericks (Buckwheat), Connor Berry (Stymie), Chase Vacnin (Butch), Zaria Zakiya (Violinda), Kelly Anne Sweeney (Tap Dancer), Weston McClelland (Ticket Kid), Brian Stepanek (Sergio), Valerie Azlynn (Miss Crabtree), Steve Monroe (Mailman), Doris Roberts, Greg Germann, Mindy Sterling (Talent coordinator), Anna Ross (Cake Ballerina)
    Rating: PG
    Long Deion: Маленькие негодяи — серия комедийных фильмов о группе соседских мальчиков и девочек и об их приключениях вместе.

    Deion: Маленькие негодяи — серия комедийных фильмов о группе соседских мальчиков и девочек и об их приключениях вместе.

    Release Date: 2014-03-18T07:00:00Z
    Genre: Kids Family
    Artist: Alex Zamm
    Name: Маленькие негодяи спасают положение



    full-size screenshots










    Залил: gekka
    Размер скачиваемого торрента: 2.68 GB (2877403262 Bytes)

    Маленькие негодяи спасают положение / The Little Rascals Save the Day (2014) BDRip-AVC | iPad | D торрент скачать бесплатно
    загрузка...
    Рейтинг →
     (голосов: 1, оценка 5/5, голосовать можно 1 раз )

    Другие торренты по теме:

  • Маленькие негодяи спасают положение / The Little Rascals Save the Day (2014) HDRip | Лицензия скачать через торрент бесплатно
  • Маленькие негодяи спасают положение / The Little Rascals Save the Day (2014) BDRemux 1080p от MediaClub | Лицензия
  • Маленькие негодяи спасают положение / The Little Rascals Save the Day (2014) BDRip-AVC от Сотник | Лицензия
  • Маленькие негодяи спасают положение / The Little Rascals Save the Day (2014) BDRip от HELLYWOOD | Лицензия
  • Маленькие негодяи спасают положение / The Little Rascals Save the Day (2014) BDRip 720p от Leonardo and Scarabey | Лицензия
  • Маленькие негодяи спасают положение / The Little Rascals Save the Day (2014) BDRip-AVC | D скачать через торрент бесплатно
  • Маленькие негодяи / Шалопаи / The Little Rascals (1994) BDRemux 1080p от MediaClub | P, P2, A скачать через торрент бесплатно
  • Маленькие негодяи спасают положение / The Little Rascals Save the Day (2014) BDRip 1080p | Лицензия скачать через торрент бесплатно


    • Комментарии (0):

      Информация

      Информация

        Посетители, находящиеся в группе Гости, не могут оставлять комментарии в данной новости.

        ↓ Меню



        ↓ Опрос

        А Вы добавили сайт в закладки?
        Да
        Не


        Top 10 за месяц (Фильмы)