.
Авторизация | Регистрация
Хочешь лучшие торренты? Добавь свой email!
Добавить
» » Необитаемый / Uninhabited (2010) BDRemux 1080i от New-Team | P, L2 | лицензия скачать торрент бесплатно




    Необитаемый / Uninhabited (2010) BDRemux 1080i от New-Team | P, L2 | лицензия скачать торрент бесплатно

    Опубликовал: Админ | Дата: 27-02-2015, 11:10 | Просмотров: 179

    Их отпуск мечты превратился в ночной кошмар...



    Снималось в: Австралия / SC Films International, Screen Australia

    Категория жанра: ужасы, триллер
    Создали в: 2010
    Время просмотра: 01:27:24
    Перевод текста: Профессиональный (многоголосый закадровый) + любительский (двухголосый закадровый)
    Субтитры подготовлены: русский, немецкий
    Оригинальная аудиодорожка: английский

    Главный режиссер: Билл Беннетт / Bill Bennett

    Актеры: Джералдина Хейквилл, Генри Джеймс, Тасиа Залар, Боб Бэйнс, Билли Милионис, Терри Сиурунис

    Сюжет: Молодая пара идет на отдаленный и пустынный коралловый остров для отдыха в кемпинге, но они не подозревают, что на острове обитает призрак, ищущий возмездие…



    Качество фильма: BDRemux 1080i / BDRemux 1080i + DVD5 R5
    Тип видео: MKV

    Информация о видео: 1920x1080, MPEG-4 AVC Video 14451 kbps 1080i / 23,976 fps / 16:9 / High Profile 4.1
    Информация о звуке 1: 48 kHz, Dolby AC3, 6 ch, 256 kbps, русский Профессиональный
    Информация о звуке 2: 48 kHz, Dolby AC3, 2 ch, 160 kbps, русский Любительский
    Информация о звуке 3: DTS-HD Master Audio English 2001 kbps 7.1 / 48 kHz / 2001 kbps / 16-bit (DTS Core: 5.1 / 48 kHz / 768 kbps / 16-bit)
    Тип видео субтитров: SoftSub (srt) - русский, PGS - немецкий

    Дополнительно: Фильм разбит на главы, как на оригинальном Blu-ray диске.

    Раздача от:
    MediaInfo

    Общее
    Полное имя : Neobitayemyi.2010.P.BDRemux.1080i.New-Team.mkv
    Формат : Matroska
    Версия формата : Version 4 / Version 2
    Размер файла : 10,3 Гбайт
    Продолжительность : 1 ч. 27 м.
    Режим общего битрейта : Переменный
    Общий поток : 16,9 Мбит/сек
    Дата кодирования : UTC 2014-05-13 06:40:44
    Программа кодирования : mkvmerge v6.9.1 (;Blue Panther;) 64bit built on Apr 18 2014 18:23:38
    Библиотека кодирования : libebml v1.3.0 + libmatroska v1.4.1

    Видео
    Идентификатор : 1
    Формат : AVC
    Формат/Информация : Advanced Video Codec
    Профиль формата : High@L4.1
    Параметр CABAC формата : Да
    Параметр ReFrames формата : 2 кадра
    Идентификатор кодека : V_MPEG4/ISO/AVC
    Продолжительность : 1 ч. 27 м.
    Вид битрейта : Переменный
    Максимальный битрейт : 30,2 Мбит/сек
    Ширина : 1920 пикселей
    Высота : 1080 пикселей
    Соотношение сторон : 16:9
    Режим частоты кадров : Постоянный
    Частота кадров : 23,976 кадра/сек
    Цветовое пространство : YUV
    Субдискретизация насыщенности : 4:2:0
    Битовая глубина : 8 бит
    Тип развёртки : Прогрессивная
    Язык : English
    Default : Да
    Forced : Нет

    Аудио #1
    Идентификатор : 2
    Формат : AC-3
    Формат/Информация : Audio Coding 3
    Расширение режима : CM (complete main)
    Параметр Endianness формата : Big
    Идентификатор кодека : A_AC3
    Продолжительность : 1 ч. 27 м.
    Вид битрейта : Постоянный
    Битрейт : 256 Кбит/сек
    Каналы : 6 каналов
    Расположение каналов : Front: L C R, Side: L R, LFE
    Частота : 48,0 КГц
    Битовая глубина : 16 бит
    Метод сжатия : С потерями
    Размер потока : 160 Мбайт (2%)
    Заголовок : MVO
    Язык : Russian
    Default : Да
    Forced : Нет

    Аудио #2
    Идентификатор : 3
    Формат : AC-3
    Формат/Информация : Audio Coding 3
    Расширение режима : CM (complete main)
    Параметр Endianness формата : Big
    Идентификатор кодека : A_AC3
    Продолжительность : 1 ч. 27 м.
    Вид битрейта : Постоянный
    Битрейт : 160 Кбит/сек
    Каналы : 2 канала
    Расположение каналов : Front: L R
    Частота : 48,0 КГц
    Битовая глубина : 16 бит
    Метод сжатия : С потерями
    Размер потока : 100 Мбайт (1%)
    Заголовок : DVO
    Язык : Russian
    Default : Нет
    Forced : Нет

    Аудио #3
    Идентификатор : 4
    Формат : DTS
    Формат/Информация : Digital Theater Systems
    Профиль формата : MA / Core
    Режим : 16
    Параметр Endianness формата : Big
    Идентификатор кодека : A_DTS
    Продолжительность : 1 ч. 27 м.
    Вид битрейта : Переменный
    Битрейт : Неизвестно / 768 Кбит/сек
    Каналы : 8 каналов / 6 каналов
    Расположение каналов : Front: L C R, Side: L R, Back: L R, LFE / Front: L C R, Side: L R, LFE
    Частота : 48,0 КГц
    Битовая глубина : 16 бит
    Метод сжатия : Без потерь / Lossy
    Язык : English
    Default : Нет
    Forced : Нет

    Текст #1
    Идентификатор : 5
    Формат : UTF-8
    Идентификатор кодека : S_TEXT/UTF8
    Идентификатор кодека/Информация : UTF-8 Plain Text
    Язык : Russian
    Default : Нет
    Forced : Нет

    Текст #2
    Идентификатор : 6
    Формат : PGS
    Режим смешивания : zlib
    Идентификатор кодека : S_HDMV/PGS
    Идентификатор кодека/Информация : The same subtitle format used on BDs/HD-DVDs
    Заголовок : Full
    Язык : German
    Default : Нет
    Forced : Нет

    Текст #3
    Идентификатор : 7
    Формат : PGS
    Режим смешивания : zlib
    Идентификатор кодека : S_HDMV/PGS
    Идентификатор кодека/Информация : The same subtitle format used on BDs/HD-DVDs
    Заголовок : forced
    Язык : German
    Default : Нет
    Forced : Нет

    Меню
    00:00:00.000 : en:00:00:00.000
    00:01:13.990 : en:00:01:13.990
    00:08:32.970 : en:00:08:32.970
    00:17:39.975 : en:00:17:39.975
    00:26:40.974 : en:00:26:40.974
    00:35:29.377 : en:00:35:29.377
    00:45:02.950 : en:00:45:02.950
    00:54:09.955 : en:00:54:09.955
    01:02:47.764 : en:01:02:47.764
    01:13:16.934 : en:01:13:16.934
    01:20:19.940 : en:01:20:19.940
    01:22:40.956 : en:01:22:40.956

    Скриншоты для ознакомления:



    Размер скачиваемого торрента: 10.30 GB (11062373824 Bytes)

    Необитаемый / Uninhabited (2010) BDRemux 1080i от New-Team | P, L2 | лицензия торрент скачать бесплатно
    загрузка...
    Рейтинг →
     (голосов: 1, оценка 4/5, голосовать можно 1 раз )

    Другие торренты по теме:

  • Необитаемый / Uninhabited (2010) BDRip-AVC от MediaClub | L2
  • Необитаемый / Uninhabited (2010) Blu-ray Remux 1080i от MediaClub | L2
  • Необитаемый / Uninhabited (2010) BDRip 720p от MediaClub | L2
  • Необитаемый / Uninhabited (2010) BDRip от MediaClub | L2
  • Необитаемый / Uninhabited (2010) DVD5 R5 от New-Team | P | лицензия
  • Необитаемый / Uninhabited (2010) BDRip-AVC от New-Team | P, L2 | лицензия
  • Необитаемый / Uninhabited (2010) BDRip от New-Team | P, L2 | лицензия
  • Необитаемый / Uninhabited (2010) BDRip 720p от New-Team | P, L2 | лицензия


    • Комментарии (0):

      Информация

      Информация

        Посетители, находящиеся в группе Гости, не могут оставлять комментарии в данной новости.

        ↓ Меню



        ↓ Опрос

        А Вы добавили сайт в закладки?
        Да
        Не


        Top 10 за месяц (Фильмы)