.
Авторизация | Регистрация
Хочешь лучшие торренты? Добавь свой email!
Добавить
» » Сверхъестественное / Supernatural (2013-2014) WEB-DLRip от Deadmauvlad | LostFilm скачать через торрент бесплатно




    Сверхъестественное / Supernatural (2013-2014) WEB-DLRip от Deadmauvlad | LostFilm скачать через торрент бесплатно

    Опубликовал: Админ | Дата: 27-02-2015, 11:10 | Просмотров: 199


    Сезон: 9 | Серий: 1-20 из (23)Создали в: 2013
    Снималось в:
    Премьера: 8 октября 2013
    Категория жанра: ужасы, триллер, мистика
    Тип: сериал, ~ 42 мин.Перевод текста: Профессиональный многоголосый закадровый LostFilm
    Субтитры: Присутствуют (Внешние) - Автор русского перевода: Злюка (1-12,16) 13-15,18,19 20 Серия (Владислав Кардаш) 21 (нотабиноид)

    Создатель: Эрик Крипке
    Главный режиссёр: Джереми Карвер

    Сериал рассказывает о приключениях братьев Сэма и Дина Винчестеров, которые путешествуют по Соединённым Штатам на чёрном автомобиле Chevrolet Impala 1967 года, расследуют паранормальные явления, многие из которых основаны на американских городских легендах и фольклоре, и сражаются с порождениями зла, такими как демоны и призраки.



    Качество фильма: WEB-DLRip | Рекламы: Нету | Тип видео: AVI

    : XviD build 73| 720x400 (1.80:1), 23.976 fps, XviD build 73 ~855 kbps avg, 0.12 bit/pixel

    :

    RU - MP3| 48 kHz, MP3 , 2/0 (L,R) ch, ~128 kbps

    добавлена 21 серия!

    MediaInfo

    Общее
    Полное имя : D:Рипы выкладка DeadmauvladРипы готовыеSupernatural.S09.WEBDLRip.LostFilm.Deadmauvlad.Sub_(Rus,Eng)Supernatural_S09_E18.WEBDLRip.LostFilm.Deadmauvlad.avi
    Формат : AVI
    Формат/Информация : Audio Video Interleave
    Размер файла : 352 Мбайт
    Продолжительность : 42 м.
    Общий поток : 1157 Кбит/сек
    Название фильма : Supernatural_S09_E18.WEBDLRip.LostFilm.Deadmauvlad
    Режиссёр : Deadmauvlad
    Жанр : Ужасы, Триллер
    Программа кодирования : VirtualDubMod 1.5.10.3 | www.virtualdub-fr.org || (build 2550/release)
    Формат оригинала/Имя : Фильм
    Правообладатель : Goldenshara

    Видео
    Идентификатор : 0
    Формат : MPEG-4 Visual
    Профиль формата : Advanced Simple@L5
    Параметр BVOP формата : 1
    Параметр QPel формата : Нет
    Параметр GMC формата : Без точки перехода
    Параметр матрицы формата : Выборочная
    Идентификатор кодека : XVID
    Идентификатор кодека/Подсказка : XviD
    Продолжительность : 42 м.
    Битрейт : 1020 Кбит/сек
    Ширина : 720 пикселей
    Высота : 400 пикселей
    Соотношение сторон : 16:9
    Частота кадров : 23,976 кадра/сек
    Цветовое пространство : YUV
    Субдискретизация насыщенности : 4:2:0
    Битовая глубина : 8 бит
    Тип развёртки : Прогрессивная
    Метод сжатия : С потерями
    Бит/(Пиксели*Кадры) : 0.148
    Размер потока : 310 Мбайт (88%)
    Библиотека кодирования : XviD 73

    Аудио
    Идентификатор : 1
    Формат : MPEG Audio
    Версия формата : Version 1
    Профиль формата : Layer 3
    Идентификатор кодека : 55
    Идентификатор кодека/Подсказка : MP3
    Продолжительность : 42 м.
    Вид битрейта : Постоянный
    Битрейт : 128 Кбит/сек
    Каналы : 2 канала
    Частота : 48,0 КГц
    Метод сжатия : С потерями
    Размер потока : 38,9 Мбайт (11%)
    Выравнивание : Соединение по промежуткам
    Продолжительность промежутка : 42 мс. (1,00 видеокадр)
    Время предзагрузки промежутка : 504 мс.
    Библиотека кодирования : LAME3.99r
    Залил: DJ_V.K_TV
    Размер скачиваемого торрента: 6.56 GB (7046178888 Bytes)


    Сверхъестественное / Supernatural (2013-2014) WEB-DLRip от Deadmauvlad | LostFilm скачать через торрент бесплатно
    загрузка...
    Рейтинг →
     (голосов: 1, оценка 4/5, голосовать можно 1 раз )

    Другие торренты по теме:

  • Сверхъестественное / Supernatural (2017) WEB-DL 1080р | NovaFilm
  • Сверхъестественное / Supernatural (2017) WEB-DLRip | NovaFilm
  • Сверхъестественное / Supernatural (2017) WEB-DL 720р | NovaFilm
  • Сверхъестественное / Supernatural: The Animation (2011) BDRip | AniFilm
  • Painkiller: Сверхъестественное / Painkiller: Supernatural (2012) PC
  • Сверхъестественное / Supernatural (2010-2011) DVDRip | Рен-ТВ
  • Сверхъестественное / Supernatural (2012) WEB-DLRip | LostFilm
  • Сверхъестественное / Supernatural (2013) HDTVRip | Kerob


    • Комментарии (0):

      Информация

      Информация

        Посетители, находящиеся в группе Гости, не могут оставлять комментарии в данной новости.

        ↓ Меню



        ↓ Опрос

        А Вы добавили сайт в закладки?
        Да
        Не


        Top 10 за месяц (Фильмы)