.
Авторизация | Регистрация
Хочешь лучшие торренты? Добавь свой email!
Добавить
» » В поисках мистера Совершентсво / Bei Jing yu shang Xi Ya Tu / Finding Mr. Right (2013) BDRip 720p от CINEMANIA | L1 скачать через торрент бесплатно




    В поисках мистера Совершентсво / Bei Jing yu shang Xi Ya Tu / Finding Mr. Right (2013) BDRip 720p от CINEMANIA | L1 скачать через торрент бесплатно

    Опубликовал: Админ | Дата: 27-02-2015, 11:10 | Просмотров: 148



    Информация о файле
    Русское название: В поисках мистера Совершенство
    Русское название в мировом прокате: Bei Jing yu shang Xi Ya Tu / Finding Mr. Right
    Создали в: 2013
    Категория жанра: комедия
    Главный режиссер: Сюэ Сяолу
    Актеры: Тан Вэй, Сиобо Ву, Хай-цин, Хунмэй Мэй, Илэйн Цзинь, Ивэй Лау, Ванг Цянь, Ли О Гонг, Джессика Сонг, Моника Сонг

    Сюжет фильма:
    Вместе со своим богатым любовником Джиа-Джиа приезжает в Штаты из родного Гонконга. Будучи беременной героиня с нетерпением ждет рождения сына, который, как она надеется, унаследует от отца приличное состояние. Но все её планы неожиданно перечеркивает вспыхнувшая любовь. Что ей теперь делать: обеспечить ребенку безбедное будущее или же отдаться чувствам? Этот ответственный выбор предопределит всю её дальнейшую судьбу.



    Снималось в: Китай, Гонконг
    Время просмотра: 02:02:40
    Тип перевода: Любительское (одноголосое) SledgeH

    Файл
    Тип видео: MKV
    Качество фильма: BDRip 720p EbP
    Информация о видео: 5278 kb/s, 1280x546
    Информация о звуке: Russian: AC3, 192 kb/s (2 ch) / Chinese: AC3, 640 kb/s (6 ch)
    Субтитры: Russian julz_nsk, English
    Дополнительно: Сохранены оригинальные чаптеры как на Blu-ray
    Размер скачиваемого торрента: 5.34 GB
    Скачать: Сэмпл

    Релиз группы:



    NFO
    Общее
    Finding.Mr.Right.2013.Blu.Ray.720p.CINEMANIA.mkv
    Формат : Matroska
    Версия формата : Version 4 / Version 2
    Размер файла : 5,34 Гбайт
    Продолжительность : 2 ч. 2 м.
    Общий поток : 6234 Кбит/сек
    Название фильма : Release Group CINEMANIA
    Дата кодирования : UTC 2014-05-11 22:54:36
    Программа кодирования : mkvmerge v6.9.1 (;Blue Panther;) 64bit built on Apr 18 2014 18:23:38
    Библиотека кодирования : libebml v1.3.0 + libmatroska v1.4.1

    Видео
    Идентификатор : 1
    Формат : AVC
    Формат/Информация : Advanced Video Codec
    Профиль формата : High@L4.1
    Параметр CABAC формата : Да
    Параметр ReFrames формата : 11 кадров
    Идентификатор кодека : V_MPEG4/ISO/AVC
    Продолжительность : 2 ч. 2 м.
    Битрейт : 5278 Кбит/сек
    Ширина : 1280 пикселей
    Высота : 546 пикселей
    Соотношение сторон : 2,35:1
    Режим частоты кадров : Постоянный
    Частота кадров : 24,000 кадра/сек
    Цветовое пространство : YUV
    Субдискретизация насыщенности : 4:2:0
    Битовая глубина : 8 бит
    Тип развёртки : Прогрессивная
    Бит/(Пиксели*Кадры) : 0.315
    Размер потока : 4,52 Гбайт (85%)
    Заголовок : Release Group CINEMANIA
    Язык : Chinese
    Default : Да
    Forced : Нет

    Аудио #1
    Идентификатор : 2
    Формат : AC-3
    Формат/Информация : Audio Coding 3
    Расширение режима : CM (complete main)
    Параметр Endianness формата : Big
    Идентификатор кодека : A_AC3
    Продолжительность : 2 ч. 2 м.
    Вид битрейта : Постоянный
    Битрейт : 192 Кбит/сек
    Каналы : 2 канала
    Расположение каналов : Front: L R
    Частота : 48,0 КГц
    Битовая глубина : 16 бит
    Метод сжатия : С потерями
    Размер потока : 168 Мбайт (3%)
    Заголовок : SledgeH
    Язык : Russian
    Default : Да
    Forced : Да

    Аудио #2
    Идентификатор : 3
    Формат : AC-3
    Формат/Информация : Audio Coding 3
    Расширение режима : CM (complete main)
    Параметр Endianness формата : Big
    Идентификатор кодека : A_AC3
    Продолжительность : 2 ч. 2 м.
    Вид битрейта : Постоянный
    Битрейт : 640 Кбит/сек
    Каналы : 6 каналов
    Расположение каналов : Front: L C R, Side: L R, LFE
    Частота : 48,0 КГц
    Битовая глубина : 16 бит
    Метод сжатия : С потерями
    Размер потока : 562 Мбайт (10%)
    Язык : Chinese
    Default : Нет
    Forced : Нет

    Текст #1
    Идентификатор : 4
    Формат : UTF-8
    Идентификатор кодека : S_TEXT/UTF8
    Идентификатор кодека/Информация : UTF-8 Plain Text
    Заголовок : julz_nsk
    Язык : Russian
    Default : Нет
    Forced : Нет

    Текст #2
    Идентификатор : 5
    Формат : UTF-8
    Идентификатор кодека : S_TEXT/UTF8
    Идентификатор кодека/Информация : UTF-8 Plain Text
    Язык : English
    Default : Нет
    Forced : Нет

    Меню
    00:00:00.000 : en:00:00:00.000
    00:10:46.417 : en:00:10:46.417
    00:19:36.208 : en:00:19:36.208
    00:30:32.542 : en:00:30:32.542
    00:40:04.583 : en:00:40:04.583
    00:51:16.000 : en:00:51:16.000
    01:00:32.750 : en:01:00:32.750
    01:09:56.042 : en:01:09:56.042
    01:20:48.458 : en:01:20:48.458
    01:32:22.708 : en:01:32:22.708
    01:41:31.000 : en:01:41:31.000
    01:51:35.500 : en:01:51:35.500

    Залил: DGEKIGAN
    Размер скачиваемого торрента: 5.34 GB (5736235674 Bytes)

    В поисках мистера Совершентсво / Bei Jing yu shang Xi Ya Tu / Finding Mr. Right (2013) BDRip 720p от CINEMANIA | L1 скачать через торрент бесплатно
    загрузка...
    Рейтинг →
     (голосов: 1, оценка 4/5, голосовать можно 1 раз )

    Другие торренты по теме:

  • В поисках приключений / The Quest / 1996 / 2 x ПД, 3 x ПМ, АП (Живов, Гаврилов, Кашкин), СТ / Blu-Ray Remux (1080p)
  • Мир в фокусе: В поисках бессмертия (2012) IPTVRip
  • Горец: В поисках мести / Highlander: The Search for Vengeance (2007) DVDRip | Режиссёрская версия / Directors Cut
  • Индиана Джонс: В поисках утраченного ковчега / Indiana Jones: Raiders of the Lost Ark (1981) BDRip от HELLYWOOD
  • В Поисках Луны / Under the Same Moon / Onaji tsuki wo miteiru (2005) DVDRip | L1
  • В поисках мистера Гудбара / Найти хорошего парня / Looking for Mr. Goodbar (1977) SATRip by DST
  • Библиотекарь: В поисках копья судьбы / The Librarian: Quest for the Spear (2004) BDRemux 1080i от HDTracker
  • В поисках бессмертия: Древо Жизни (2013) PC


    • Комментарии (0):

      Информация

      Информация

        Посетители, находящиеся в группе Гости, не могут оставлять комментарии в данной новости.

        ↓ Меню



        ↓ Опрос

        А Вы добавили сайт в закладки?
        Да
        Не


        Top 10 за месяц (Фильмы)