.
Авторизация | Регистрация
Хочешь лучшие торренты? Добавь свой email!
Добавить
» » Имитатор / Copycat (1995) DVD5 | P скачать через торрент бесплатно




    Имитатор / Copycat (1995) DVD5 | P скачать через торрент бесплатно

    Опубликовал: Админ | Дата: 27-02-2015, 11:10 | Просмотров: 214



    Детально о кино
    Русское название: Имитатор
    Русское название в мировом прокате: Copycat
    Создали в: 1995
    Категория жанра: триллер, драма, криминал, детектив
    Главный режиссер: Джон Эмиел
    Актеры: Сигурни Уивер, Холли Хантер, Дермот Малруни, Уильям МакНамара, Гарри Конник мл., Дж.Э. Фримен, Уилл Пэттон, Джон Ротмен, Шэннон О’Хёрли, Боб Грин

    Сюжет фильма:
    Сан-Франциско потрясен серией жестоких убийств, каждое из которых копирует аналогичные преступления, совершенные в прошлом разными маньяками. Чтобы остановить волну убийств, сотрудница полиции Эм Джей Монахан обращается за помощью к доктору Хелен Хадсон, специалисту по психологии маньяков.




    Снималось в: США
    Киностудия: New Regency Pictures, Regency Enterprises
    Время просмотра: 123 мин. / 02:03
    Перевод текста: профессиональный (многоголосый, закадровый)

    Файл
    Кодек для видео: MPEG2
    Качество фильма: DVD5
    Информация о видео: PAL 16:9 (720x576@1024x576) VBR 4097 Kbps, 25.000 fps
    Информация о звуке: Dolby AC3, 6 ch, 48.0 KHz, 384 Kbps русский, английский, немецкий
    Субтитры: русские, английские, немецкие, испанские, иврит, итальянские, французские, польские

    MediaInfo
    General
    Complete name : D:imitatorVIDEO_TSVTS_02_1.VOB
    Format : MPEG-PS
    File size : 1 024 MiB
    Duration : 26mn 43s
    Overall bit rate mode : Variable
    Overall bit rate : 5 356 Kbps

    Video
    ID : 224 (0xE0)
    Format : MPEG Video
    Format version : Version 2
    Format profile : Main@Main
    Format settings, BVOP : Yes
    Format settings, Matrix : Default
    Format settings, GOP : M=3, N=15
    Duration : 26mn 43s
    Bit rate mode : Variable
    Bit rate : 4 097 Kbps
    Maximum bit rate : 7 000 Kbps
    Width : 720 pixels
    Height : 576 pixels
    Display aspect ratio : 16:9
    Frame rate : 25.000 fps
    Standard : PAL
    Color space : YUV
    Chroma subsampling : 4:2:0
    Bit depth : 8 bits
    Scan type : Interlaced
    Scan order : Top Field First
    Compression mode : Lossy
    Bits/(Pixel*Frame) : 0.395
    Time code of first frame : 00:00:00:00
    Time code source : Group of pictures t_head
    Stream size : 783 MiB (77%)

    Audio #1
    ID : 189 (0xBD)-128 (0x80)
    Format : AC-3
    Format/Info : Audio Coding 3
    Mode extension : CM (complete main)
    Format settings, Endianness : Big
    Muxing mode : DVD-Video
    Duration : 26mn 43s
    Bit rate mode : Constant
    Bit rate : 384 Kbps
    Channel(s) : 6 channels
    Channel positions : Front: L C R, Side: L R, LFE
    Sampling rate : 48.0 KHz
    Bit depth : 16 bits
    Compression mode : Lossy
    Delay relative to video : -80ms
    Stream size : 73.4 MiB (7%)

    Audio #2
    ID : 189 (0xBD)-129 (0x81)
    Format : AC-3
    Format/Info : Audio Coding 3
    Mode extension : CM (complete main)
    Format settings, Endianness : Big
    Muxing mode : DVD-Video
    Duration : 26mn 43s
    Bit rate mode : Constant
    Bit rate : 384 Kbps
    Channel(s) : 6 channels
    Channel positions : Front: L C R, Side: L R, LFE
    Sampling rate : 48.0 KHz
    Bit depth : 16 bits
    Compression mode : Lossy
    Delay relative to video : -80ms
    Stream size : 73.4 MiB (7%)

    Audio #3
    ID : 189 (0xBD)-130 (0x82)
    Format : AC-3
    Format/Info : Audio Coding 3
    Mode extension : CM (complete main)
    Format settings, Endianness : Big
    Muxing mode : DVD-Video
    Duration : 26mn 43s
    Bit rate mode : Constant
    Bit rate : 384 Kbps
    Channel(s) : 6 channels
    Channel positions : Front: L C R, Side: L R, LFE
    Sampling rate : 48.0 KHz
    Bit depth : 16 bits
    Compression mode : Lossy
    Delay relative to video : -80ms
    Stream size : 73.4 MiB (7%)

    Text #1
    ID : 189 (0xBD)-32 (0x20)
    Format : RLE
    Format/Info : Run-length encoding
    Muxing mode : DVD-Video

    Text #2
    ID : 189 (0xBD)-33 (0x21)
    Format : RLE
    Format/Info : Run-length encoding
    Muxing mode : DVD-Video

    Text #3
    ID : 189 (0xBD)-34 (0x22)
    Format : RLE
    Format/Info : Run-length encoding
    Muxing mode : DVD-Video

    Text #4
    ID : 189 (0xBD)-35 (0x23)
    Format : RLE
    Format/Info : Run-length encoding
    Muxing mode : DVD-Video

    Text #5
    ID : 189 (0xBD)-36 (0x24)
    Format : RLE
    Format/Info : Run-length encoding
    Muxing mode : DVD-Video

    Text #6
    ID : 189 (0xBD)-37 (0x25)
    Format : RLE
    Format/Info : Run-length encoding
    Muxing mode : DVD-Video

    Text #7
    ID : 189 (0xBD)-38 (0x26)
    Format : RLE
    Format/Info : Run-length encoding
    Muxing mode : DVD-Video

    Text #8
    ID : 189 (0xBD)-39 (0x27)
    Format : RLE
    Format/Info : Run-length encoding
    Muxing mode : DVD-Video

    Menu

    Скриншоты для ознакомления

    Залил: carisha
    Размер скачиваемого торрента: 4.26 GB (4571291648 Bytes)

    Имитатор / Copycat (1995) DVD5 | P скачать через торрент бесплатно
    загрузка...
    Рейтинг →
     (голосов: 1, оценка 4/5, голосовать можно 1 раз )

    Другие торренты по теме:

  • Имитатор / Copycat (1995) BDRip-AVC | P, А
  • Имитатор / Copycat (1995) BDRip-AVC от MediaClub | P, A скачать через торрент бесплатно
  • Имитатор (1990) TVRip
  • Имитатор / 1991 / РУ / TVRip


    • Комментарии (0):

      Информация

      Информация

        Посетители, находящиеся в группе Гости, не могут оставлять комментарии в данной новости.

        ↓ Меню



        ↓ Опрос

        А Вы добавили сайт в закладки?
        Да
        Не


        Top 10 за месяц (Фильмы)