.
Авторизация | Регистрация
Хочешь лучшие торренты? Добавь свой email!
Добавить
» » Обида / Umbrage (2009) WEB-DL 720p от CINEMANIA | L2 скачать через торрент бесплатно




    Обида / Umbrage (2009) WEB-DL 720p от CINEMANIA | L2 скачать через торрент бесплатно

    Опубликовал: Админ | Дата: 27-02-2015, 11:10 | Просмотров: 198



    Детально о кино
    Русское название: Обида
    Русское название в мировом прокате: Umbrage
    Создали в: 2009
    Категория жанра: ужасы, вестерн
    Главный режиссер: Дрю Каллингем
    Актеры: Даг Брэдли, Рита Рамнани, Джонни Херн, Натали Целино, Грэйс Валлорани, Джеймс Фишер, Скотт Томас, Йорам Халберстам, Виктория Брум, Джейсон Крут

    Сюжет фильма:
    Группа людей оказываются между двух огней, противостоящими друг другу источниками зла — мстительным бессмертным ковбоем и воскресшей из мертвых Лилит (матерью суккубов, повелительницей теней, убийцей детей и супругой самого Дьявола). Иногда так случается, что единственным оружием против зла выступает зло!..



    Снималось в: Великобритания
    Время просмотра: 01:34:15
    Тип перевода: Любительское (двухголосое) DeadSno den904
    перевод на русский язык МЕГАПЫХАРЬ ОХ! Студия
    работа со звуком Гуннлауг

    Тип видео: MKV
    Качество фильма: WEB-DL 720p HD4FUN
    Информация о видео: 3792 kb/s, 1280x542
    Информация о звуке: Russian / English: AC3, 384 kb/s (6 ch)
    Субтитры: English
    Дополнительно: Сохранены оригинальные чаптеры как на Blu-Ray
    Размер скачиваемого торрента: 3.06 GB
    Скачать: Сэмпл

    Релиз группы:



    NFO
    Общее
    Umbrage.2009.WEB-DL.720p.CINEMANIA.mkv
    Формат : Matroska
    Версия формата : Version 4 / Version 2
    Размер файла : 3,06 Гбайт
    Продолжительность : 1 ч. 34 м.
    Общий поток : 4653 Кбит/сек
    Название фильма : Release Group CINEMANIA
    Дата кодирования : UTC 2014-05-12 19:11:10
    Программа кодирования : mkvmerge v6.9.1 (;Blue Panther;) 64bit built on Apr 18 2014 18:23:38
    Библиотека кодирования : libebml v1.3.0 + libmatroska v1.4.1

    Видео
    Идентификатор : 1
    Формат : AVC
    Формат/Информация : Advanced Video Codec
    Профиль формата : Main@L3.1
    Параметр CABAC формата : Нет
    Параметр ReFrames формата : 2 кадра
    Идентификатор кодека : V_MPEG4/ISO/AVC
    Продолжительность : 1 ч. 34 м.
    Битрейт : 3792 Кбит/сек
    Ширина : 1280 пикселей
    Высота : 542 пикселя
    Соотношение сторон : 2,35:1
    Режим частоты кадров : Постоянный
    Частота кадров : 23,976 кадра/сек
    Цветовое пространство : YUV
    Субдискретизация насыщенности : 4:2:0
    Битовая глубина : 8 бит
    Тип развёртки : Прогрессивная
    Бит/(Пиксели*Кадры) : 0.228
    Размер потока : 2,50 Гбайт (82%)
    Заголовок : Release Group CINEMANIA
    Язык : English
    Default : Да
    Forced : Нет
    Основные цвета : BT.709
    Характеристики трансфера : BT.709
    Коэффициенты матрицы : BT.709

    Аудио #1
    Идентификатор : 2
    Формат : AC-3
    Формат/Информация : Audio Coding 3
    Расширение режима : CM (complete main)
    Параметр Endianness формата : Big
    Идентификатор кодека : A_AC3
    Продолжительность : 1 ч. 34 м.
    Вид битрейта : Постоянный
    Битрейт : 384 Кбит/сек
    Каналы : 6 каналов
    Расположение каналов : Front: L C R, Side: L R, LFE
    Частота : 48,0 КГц
    Битовая глубина : 16 бит
    Метод сжатия : С потерями
    Размер потока : 259 Мбайт (8%)
    Заголовок : Влад и Снежинка
    Язык : Russian
    Default : Да
    Forced : Да

    Аудио #2
    Идентификатор : 3
    Формат : AC-3
    Формат/Информация : Audio Coding 3
    Расширение режима : CM (complete main)
    Параметр Endianness формата : Big
    Идентификатор кодека : A_AC3
    Продолжительность : 1 ч. 34 м.
    Вид битрейта : Постоянный
    Битрейт : 384 Кбит/сек
    Каналы : 6 каналов
    Расположение каналов : Front: L C R, Side: L R, LFE
    Частота : 48,0 КГц
    Битовая глубина : 16 бит
    Метод сжатия : С потерями
    Размер потока : 259 Мбайт (8%)
    Язык : English
    Default : Нет
    Forced : Нет

    Текст
    Идентификатор : 4
    Формат : UTF-8
    Идентификатор кодека : S_TEXT/UTF8
    Идентификатор кодека/Информация : UTF-8 Plain Text
    Язык : English
    Default : Нет
    Forced : Нет

    Меню
    00:00:00.000 : en:1
    00:07:42.000 : en:2
    00:16:37.000 : en:3
    00:25:06.000 : en:4
    00:34:55.000 : en:5
    00:44:51.000 : en:6
    00:54:57.000 : en:7
    01:01:56.000 : en:8
    01:08:37.000 : en:9
    01:15:21.000 : en:10
    01:24:45.000 : en:11

    Залил: DGEKIGAN
    Размер скачиваемого торрента: 3.06 GB (3289173386 Bytes)

    Обида / Umbrage (2009) WEB-DL 720p от CINEMANIA | L2 скачать через торрент бесплатно
    загрузка...
    Рейтинг →
     (голосов: 1, оценка 3/5, голосовать можно 1 раз )

    Другие торренты по теме:

  • Обида / Вампирская история / Umbrage / A Vampires tale (2009) WEB-DLRip | L2


    • Комментарии (0):

      Информация

      Информация

        Посетители, находящиеся в группе Гости, не могут оставлять комментарии в данной новости.

        ↓ Меню



        ↓ Опрос

        А Вы добавили сайт в закладки?
        Да
        Не


        Top 10 за месяц (Фильмы)