.
Авторизация | Регистрация
Хочешь лучшие торренты? Добавь свой email!
Добавить
» » Байкеры 3 / Dhoom: 3 (2013) BDRip 720 | L скачать через торрент бесплатно




    Байкеры 3 / Dhoom: 3 (2013) BDRip 720 | L скачать через торрент бесплатно

    Опубликовал: Админ | Дата: 27-02-2015, 11:10 | Просмотров: 187

    Байкеры 3 / Dhoom: 3 (2013) BDRip 720p | L
    _________________________________________________________


    Русское название: Байкеры 3
    Русское название в мировом прокате: Dhoom: 3
    Создали в: 2013
    Категория жанра: Боевик, триллер, криминал
    Главный режиссер: Виджай Кришна Ачария (Vijay Krishna Acharya)
    Актеры: Аамир Кхан, Катрина Кэйф, Табретт Бетелл, Абхишек Баччан, Джеки Шрофф, Удай Чопра, Ким ДеДжизес,
    Жаклин Скисловски, М’лаа Каур Сингх, Луис Шершель и др.
    Сюжет фильма:
    Действие фильма начинается в Чикаго в 1990 году, когда Сахир был ребёнком и рос в цирке своего отца. Но компания увязла в долгах
    и банкиры были непреклонны. Отец Сахира от отчаяния застрелился. С тех пор Сахир мечтает отомстить
    за смерть своего отца, и для этого он планирует ограбить тот самый банк.




    Снималось в: Индия (Yash Raj Films)
    Время просмотра: 02:51:11
    Перевод текста: Любительский (многоголосый закадровый)
    Качество фильма: MKV, H.264, BDRip 720p | Сэмпл: Скачать
    Информация о видео: V_MPEG4/AVC, 1280х544 (2.35:1), ~ 3 954 Kbps, 24,000 кадров/сек
    Информация о звуке: Аудио 1: АС3, 6 ch, 448 kbps, 48 kHz Rus, ICG
    Аудио 2: DTS, 6 ch, 1509 kbps, 48 kHz Hindi, оригинал
    Субтитры: русские, английские (отключаемые)
    Смотрите также: Ченнайский экспресс / Chennai Express (2013) BDRip 720 | L
    Скриншоты для ознакомления
    MediaInfo
    General
    Unique ID : 205655023875329974347859416865277626794
    (0x9AB7B784C2BAFAC49A0B6B71732649AA)
    Complete name : Dhoom.3.2013.BDRip720p.mkv
    Format : Matroska
    Format version : Version 2
    File size : 7.07 GiB
    Duration : 2h 51mn
    Overall bit rate : 5 915 Kbps
    Movie name : Dhoom.3.2013.720p.www.rutor.org
    Encoded date : UTC 2014-05-12 19:21:30
    Writing application : mkvmerge v5.5.0 (;Healer;) built on Apr 9 2012 13:24:38
    Writing library : libebml v1.2.3 + libmatroska v1.3.0

    Video
    ID : 1
    Format : AVC
    Format/Info : Advanced Video Codec
    Format profile : High@L4.1
    Format settings, CABAC : Yes
    Format settings, ReFrames : 5 frames
    Muxing mode : Header stripping
    Codec ID : V_MPEG4/ISO/AVC
    Duration : 2h 51mn
    Bit rate : 3 954 Kbps
    Width : 1 280 pixels
    Height : 544 pixels
    Display aspect ratio : 2.35:1
    Frame rate mode : Constant
    Frame rate : 24.000 fps
    Color space : YUV
    Chroma subsampling : 4:2:0
    Bit depth : 8 bits
    Scan type : Progressive
    Bits/(Pixel*Frame) : 0.237
    Stream size : 4.59 GiB (65%)
    Title : Dhoom.3.2013.720p.www.rutor.org
    Writing library : x264 core 130 r2273 b3065e6
    Encoding settings : cabac=1 / ref=5 / deblock=1:-1:-1 / analyse=0x3:0x113 / me=umh / subme=8 / psy=1 / psy_rd=1.00:0.15 / mixed_ref=1 / me_range=16 / chroma_me=1 / trellis=1 / 8x8dct=1 / cqm=0 / deadzone=21,11 / fast_pskip=0 / chroma_qp_offset=-3 / threads=10 / lookahead_threads=1 / sliced_threads=0 / nr=0 / decimate=1 / interlaced=0 / bluray_compat=0 / constrained_intra=0 / bframes=3 / b_pyramid=2 / b_adapt=2 / b_bias=0 / direct=3 / weightb=1 / open_gop=0 / weightp=2 / keyint=240 / keyint_min=24 / scenecut=40 / intra_refresh=0 / rc_lookahead=50 / rc=2pass / mbtree=1 / bitrate=3954 / ratetol=1.0 / qcomp=0.60 / qpmin=0 / qpmax=69 / qpstep=4 / cplxblur=20.0 / qblur=0.5 / vbv_maxrate=62500 / vbv_bufsize=78125 / nal_hrd=none / ip_ratio=1.40 / aq=1:1.00
    Language : English
    Default : Yes
    Forced : No
    Color primaries : BT.709
    Transfer characteristics : BT.709
    Matrix coefficients : BT.709

    Audio #1
    ID : 2
    Format : AC-3
    Format/Info : Audio Coding 3
    Mode extension : CM (complete main)
    Format settings, Endianness : Big
    Muxing mode : Header stripping
    Codec ID : A_AC3
    Duration : 2h 51mn
    Bit rate mode : Constant
    Bit rate : 448 Kbps
    Channel(s) : 6 channels
    Channel positions : Front: L C R, Side: L R, LFE
    Sampling rate : 48.0 KHz
    Bit depth : 16 bits
    Compression mode : Lossy
    Stream size : 549 MiB (8%)
    Title : AC3.5.1.Russian
    Language : Russian
    Default : No
    Forced : Yes

    Audio #2
    ID : 3
    Format : DTS
    Format/Info : Digital Theater Systems
    Mode : 16
    Format settings, Endianness : Big
    Muxing mode : Header stripping
    Codec ID : A_DTS
    Duration : 2h 51mn
    Bit rate mode : Constant
    Bit rate : 1 509 Kbps
    Channel(s) : 6 channels
    Channel positions : Front: L C R, Side: L R, LFE
    Sampling rate : 48.0 KHz
    Bit depth : 24 bits
    Compression mode : Lossy
    Stream size : 1.80 GiB (26%)
    Title : DTS.5.1.Hindi
    Language : Hindi
    Default : No
    Forced : No

    Text #1
    ID : 4
    Format : UTF-8
    Codec ID : S_TEXT/UTF8
    Codec ID/Info : UTF-8 Plain Text
    Title : rus
    Language : Russian
    Default : No
    Forced : No

    Text #2
    ID : 5
    Format : UTF-8
    Codec ID : S_TEXT/UTF8
    Codec ID/Info : UTF-8 Plain Text
    Title : rus 2
    Language : Russian
    Default : No
    Forced : No

    Text #3
    ID : 6
    Format : PGS
    Muxing mode : zlib
    Codec ID : S_HDMV/PGS
    Codec ID/Info : The same subtitle format used on BDs/HD-DVDs
    Title : eng
    Language : English
    Default : No
    Forced : No

    Menu
    00:00:00.000 : en:Chapter 01
    00:10:33.708 : en:Chapter 02
    00:13:59.000 : en:Chapter 03
    00:22:15.958 : en:Chapter 04
    00:25:17.458 : en:Chapter 05
    00:34:42.833 : en:Chapter 06
    00:43:39.083 : en:Chapter 07
    00:48:19.750 : en:Chapter 08
    01:11:14.917 : en:Chapter 09
    01:18:25.208 : en:Chapter 10
    01:26:10.333 : en:Chapter 11
    01:40:41.000 : en:Chapter 12
    01:46:03.875 : en:Chapter 13
    02:05:42.750 : en:Chapter 14
    02:19:05.917 : en:Chapter 15
    02:26:26.458 : en:Chapter 16
    02:37:57.917 : en:Chapter 17
    02:44:23.792 : en:Chapter 18
    02:45:43.042 : en:Chapter 19
    02:47:18.625 : en:Chapter 20

    Размер скачиваемого торрента: 7.07 GB (7594950012 Bytes)

    Байкеры 3 / Dhoom: 3 (2013) BDRip 720 | L скачать через торрент бесплатно
    загрузка...
    Рейтинг →
     (голосов: 1, оценка 4/5, голосовать можно 1 раз )

    Другие торренты по теме:

  • Байкеры 3 / Dhoom: 3 (2013) HDRip
  • Байкеры 3 / Dhoom: 3 (2013) BDRemux 1080p от HYPERHD | L скачать через торрент бесплатно


    • Комментарии (0):

      Информация

      Информация

        Посетители, находящиеся в группе Гости, не могут оставлять комментарии в данной новости.

        ↓ Меню



        ↓ Опрос

        А Вы добавили сайт в закладки?
        Да
        Не


        Top 10 за месяц (Фильмы)