.
Авторизация | Регистрация
Хочешь лучшие торренты? Добавь свой email!
Добавить
» » Карточный долг / Pistol Whipped (2008) BDRip by msltel | P скачать торрент бесплатно




    Карточный долг / Pistol Whipped (2008) BDRip by msltel | P скачать торрент бесплатно

    Опубликовал: Админ | Дата: 27-02-2015, 11:10 | Просмотров: 271



    Русское название: Карточный долг
    Русское название в мировом прокате: Pistol Whipped
    Создали в: 2008
    Категория жанра: Боевик, триллер, драма, криминал
    Снималось в: Junction Films, Rebel Film BV, Stage 6 Films, Steamroller Productions
    Главный режиссер: Роэл Рейн
    Актеры: Стивен Сигал, Пол Калдерон, Энтони Короне, Шерил Косенза, Тим Гэллин, Эшли Гринфилд, Лэнс Хенриксен, Лидия Джордан, Кристофер Мэгги

    Сюжет фильма: Жизнь бывшего полицейского элитного подразделения Мэтта катится по наклонной. Тяга к спиртному, азартные игры, карточные долги - пагубные страсти, не выпускающие из своих оков. Но есть то, ради чего он ещё держится на плаву – его дочь и страстное желание стать более менее пристойным отцом. И когда ему выпадает шанс вернуться к нормальной жизни, Мэтт без сомнений хватается за него. Некий незнакомец выкупает все его карточные долги взамен на навыки и мускулы Мэтта. Мэтт оказывается втянутым в смертельную игру. Свой карточный долг он должен отработать убийством значимых криминальных авторитетов города.

    Качество фильма: BDRip
    Информация о видео: XviD, 1902 Кбит/с, 720x384
    Информация о звуке: Русский, английский (AC3, 6 ch, 448 Кбит/с)
    Размер скачиваемого торрента: 1.96 ГБ
    Время просмотра: 01:39:43
    Перевод текста: Профессиональный многоголосый
    Субтитры: Английские

    Исходник: delo2006 (HDtracker)

    Сравнение с исходником



    MediaInfo
    Общее
    Полное имя : D:VideoKartochnyj dolg.2008.XviD.BDRipKartochnyj dolg.2008.eng.srt
    Размер файла : 131 Кбайт

    Общее
    Полное имя : D:VideoKartochnyj dolg.2008.XviD.BDRipKartochnyj dolg.2008.Original.eng.ac3
    Формат : AC-3
    Формат/Информация : Audio Coding 3
    Размер файла : 320 Мбайт
    Продолжительность : 1 ч. 39 м.
    Режим общего битрейта : Постоянный
    Общий поток : 448 Кбит/сек

    Аудио
    Формат : AC-3
    Формат/Информация : Audio Coding 3
    Расширение режима : CM (complete main)
    Параметр Endianness формата : Big
    Продолжительность : 1 ч. 39 м.
    Вид битрейта : Постоянный
    Битрейт : 448 Кбит/сек
    Каналы : 6 каналов
    Расположение каналов : Front: L C R, Side: L R, LFE
    Частота : 48,0 КГц
    Битовая глубина : 16 бит
    Метод сжатия : С потерями
    Размер потока : 320 Мбайт (100%)

    Общее
    Полное имя : D:VideoKartochnyj dolg.2008.XviD.BDRipKartochnyj dolg.2008.XviD.BDRip.avi
    Формат : AVI
    Формат/Информация : Audio Video Interleave
    Размер файла : 1,64 Гбайт
    Продолжительность : 1 ч. 39 м.
    Общий поток : 2359 Кбит/сек
    Программа кодирования : VirtualDubMod 1.5.10.2 (build 2540/release)
    Библиотека кодирования : VirtualDubMod build 2540/release

    Видео
    Идентификатор : 0
    Формат : MPEG-4 Visual
    Профиль формата : Advanced Simple@L5
    Параметр BVOP формата : 1
    Параметр QPel формата : Нет
    Параметр GMC формата : Без точки перехода
    Параметр матрицы формата : Default (H.263)
    Режим смешивания : Сжатый битовый поток
    Идентификатор кодека : XVID
    Идентификатор кодека/Подсказка : XviD
    Продолжительность : 1 ч. 39 м.
    Битрейт : 1902 Кбит/сек
    Ширина : 720 пикселей
    Высота : 384 пикселя
    Соотношение сторон : 1,85:1
    Частота кадров : 23,976 кадра/сек
    Цветовое пространство : YUV
    Субдискретизация насыщенности : 4:2:0
    Битовая глубина : 8 бит
    Тип развёртки : Прогрессивная
    Метод сжатия : С потерями
    Бит/(Пиксели*Кадры) : 0.287
    Размер потока : 1,32 Гбайт (81%)
    Библиотека кодирования : XviD 1.2.1 (UTC 2008-12-04)

    Аудио
    Идентификатор : 1
    Формат : AC-3
    Формат/Информация : Audio Coding 3
    Расширение режима : CM (complete main)
    Параметр Endianness формата : Big
    Идентификатор кодека : 2000
    Продолжительность : 1 ч. 39 м.
    Вид битрейта : Постоянный
    Битрейт : 448 Кбит/сек
    Каналы : 6 каналов
    Расположение каналов : Front: L C R, Side: L R, LFE
    Частота : 48,0 КГц
    Битовая глубина : 16 бит
    Метод сжатия : С потерями
    Размер потока : 320 Мбайт (19%)
    Выравнивание : Разделение по промежуткам
    Продолжительность промежутка : 42 мс. (1,00 видеокадр)
    Время предзагрузки промежутка : 500 мс.
    Скриншоты для ознакомления


    Залил: msltel
    Размер скачиваемого торрента: 1.96 GB (2099879318 Bytes)

    Карточный долг / Pistol Whipped (2008) BDRip by msltel | P торрент скачать бесплатно
    загрузка...
    Рейтинг →
     (голосов: 1, оценка 3/5, голосовать можно 1 раз )

    Другие торренты по теме:

  • Карточный долг / Pistol Whipped (2008) BDRip 1080p by msltel | P скачать через торрент бесплатно
  • Карточный долг / Pistol Whipped (2008) BDRip 720p by msltel | P скачать через торрент бесплатно


    • Комментарии (0):

      Информация

      Информация

        Посетители, находящиеся в группе Гости, не могут оставлять комментарии в данной новости.

        ↓ Меню



        ↓ Опрос

        А Вы добавили сайт в закладки?
        Да
        Не


        Top 10 за месяц (Фильмы)