.
Авторизация | Регистрация
Хочешь лучшие торренты? Добавь свой email!
Добавить
» » Ворон 2: Город ангелов / The Crow: City of Angels (1996) BDRip-AVC | iPad | P скачать торрент бесплатно




    Ворон 2: Город ангелов / The Crow: City of Angels (1996) BDRip-AVC | iPad | P скачать торрент бесплатно

    Опубликовал: Админ | Дата: 27-02-2015, 11:10 | Просмотров: 249



    Ворон 2: Город ангелов / The Crow: City of Angels (1996) BDRip-AVC | iPad | P
    It;s another time. It;s another world. And another has been chosen

    Русское название: Ворон 2: Город ангелов
    Русское название в мировом прокате: The Crow: City of Angels
    Создали в: 1996
    Категория жанра: фэнтези, боевик, триллер, криминал
    Главный режиссер: Тим Поуп
    Актеры: Венсан Перес, Миа Киршнер, Ричард Брукс, Игги Поп, Томас Джейн, Винсент Кастельянос, Туи Транг, Эрик Акоста, Иэн Дёри, Трейси Эллис

    Сюжет фильма:
    Свидетель жестокой расправы Эш Корвен, сам становится жертвой. Восставший из мертвых, он вступает в борьбу с силами зла в Лос-Анджелесе. Вместе с художницей, которой он снился во сне, Эш начинает мстить своим убийцам



    Снималось в: США
    Киностудия: Bad Bird Productions, Dimension Films, Jeff Most Productions

    Время просмотра: 01:30:45
    Перевод текста: Русский профессиональный многоголосый закадровый

    Файл
    Кодек для видео: H.264
    Качество фильма: BDRip 576p
    Информация о видео: 1024x554 (1.85:1) at 23.976 fps, AVC at 2100 kbps
    Информация о звуке:
    1: АAС 2.0 144 kbps - Русский профессиональный многоголосый закадровый
    2: АAС 2.0 169 kbps - Английский
    Субтитры: отсутствуют

    MI

    General
    Complete name : I:modoutThe.Crow-City.of.Angels.1996.EC.576p.P.m4v
    Format : MPEG-4
    Codec ID : M4V
    File size : 1.56 GiB
    Duration : 1h 30mn
    Overall bit rate mode : Variable
    Overall bit rate : 2 462 Kbps
    Movie name : Ворон 2: Город ангелов
    Performer : Tim Pope
    Genre : Fantasy
    ContentType : Short Film
    Deion : Свидетель жестокой расправы Эш Корвен, сам становится жертвой. Восставший из мертвых, он вступает в борьбу с силами зла в Лос-Анджелесе. Вместе с художницей, которой он снился во сне, Эш начинает мстить своим убийцам!
    Recorded date : UTC 1996-08-30 08:00:00
    Encoded date : UTC 2014-05-10 12:29:29
    Tagged date : UTC 2014-05-10 17:02:32
    Copyright : Bad Bird Productions, Dimension Films, Jeff Most Productions
    Cover : Yes
    Comment : It;s another time. It;s another world. And another has been chosen
    ContentRating : mpaa|R|400|

    Title/Sort : The Crow: City of Angels
    LongDeion : Свидетель жестокой расправы Эш Корвен, сам становится жертвой. Восставший из мертвых, он вступает в борьбу с силами зла в Лос-Анджелесе. Вместе с художницей, которой он снился во сне, Эш начинает мстить своим убийцам!
    AppleStoreCatalogID : 48942808
    Vendor : Apple:vendor_id:1996-12333

    Video
    ID : 1
    Format : AVC
    Format/Info : Advanced Video Codec
    Format profile : High@L4.1
    Format settings, CABAC : Yes
    Format settings, ReFrames : 11 frames
    Codec ID : avc1
    Codec ID/Info : Advanced Video Coding
    Duration : 1h 30mn
    Bit rate : 2 138 Kbps
    Maximum bit rate : 18.5 Mbps
    Width : 1 024 pixels
    Height : 554 pixels
    Display aspect ratio : 1.85:1
    Frame rate mode : Constant
    Frame rate : 23.976 fps
    Color space : YUV
    Chroma subsampling : 4:2:0
    Bit depth : 8 bits
    Scan type : Progressive
    Bits/(Pixel*Frame) : 0.157
    Stream size : 1.35 GiB (87%)
    Title : The.Crow_City.of.Angels.1996.EC
    Language : English
    Encoded date : UTC 2014-05-10 12:29:29
    Tagged date : UTC 2014-05-10 12:29:42

    Audio #1
    ID : 2
    Format : AAC
    Format/Info : Advanced Audio Codec
    Format profile : LC
    Codec ID : 40
    Duration : 1h 30mn
    Bit rate mode : Variable
    Bit rate : 144 Kbps
    Maximum bit rate : 202 Kbps
    Channel(s) : 2 channels
    Channel positions : Front: L R
    Sampling rate : 48.0 KHz
    Compression mode : Lossy
    Stream size : 93.1 MiB (6%)
    Title : MVO
    Language : Russian
    Encoded date : UTC 2014-05-10 12:22:42
    Tagged date : UTC 2014-05-10 12:29:42

    Audio #2
    ID : 3
    Format : AAC
    Format/Info : Advanced Audio Codec
    Format profile : LC
    Codec ID : 40
    Duration : 1h 30mn
    Bit rate mode : Variable
    Bit rate : 169 Kbps
    Maximum bit rate : 222 Kbps
    Channel(s) : 2 channels
    Channel positions : Front: L R
    Sampling rate : 48.0 KHz
    Compression mode : Lossy
    Stream size : 110 MiB (7%)
    Title : Original
    Language : English
    Encoded date : UTC 2014-05-10 12:27:18
    Tagged date : UTC 2014-05-10 12:29:42

    Menu
    ID : 4
    Codec ID : text
    Duration : 1h 30mn
    Encoded date : UTC 2014-05-10 12:29:54
    Tagged date : UTC 2014-05-10 12:29:54
    Bit rate mode : CBR

    x264

    x264 info: frame I:761 Avg QP:14.75 size: 71219
    x264 info: frame P:31987 Avg QP:19.12 size: 23063
    x264 info: frame B:97789 Avg QP:21.72 size: 6778
    x264 info: consecutive B-frames: 3.9% 4.4% 12.0% 18.1% 19.5% 30.3% 5.4% 2.3% 1.9% 0.7% 0.3% 0.2% 0.2% 0.4% 0.4%
    x264 info: mb I I16..4: 15.9% 58.8% 25.3%
    x264 info: mb P I16..4: 2.7% 10.4% 1.2% P16..4: 31.9% 34.8% 8.8% 1.7% 0.2% skip: 8.3%
    x264 info: mb B I16..4: 0.2% 1.2% 0.1% B16..8: 36.0% 16.1% 2.0% direct: 3.5% skip:40.8% L0:40.7% L1:48.3% BI:10.9%
    x264 info: 8x8 transform intra:73.0% inter:61.5%
    x264 info: coded y,uvDC,uvAC intra: 76.2% 79.3% 49.6% inter: 16.8% 16.3% 5.5%
    x264 info: i16 v,h,dc,p: 7% 10% 2% 81%
    x264 info: i8 v,h,dc,ddl,ddr,vr,hd,vl,hu: 7% 6% 5% 11% 16% 15% 14% 14% 13%
    x264 info: i4 v,h,dc,ddl,ddr,vr,hd,vl,hu: 10% 7% 6% 10% 16% 15% 13% 11% 12%
    x264 info: i8c dc,h,v,p: 28% 21% 19% 31%
    x264 info: Weighted P-Frames: Y:4.9% UV:3.4%
    x264 info: ref P L0: 60.5% 8.3% 13.1% 5.2% 3.6% 2.7% 2.1% 1.2% 1.0% 1.0% 0.9% 0.3% 0.0%
    x264 info: ref B L0: 87.7% 5.6% 2.6% 1.2% 0.9% 0.7% 0.5% 0.3% 0.2% 0.1%
    x264 info: ref B L1: 95.1% 4.9%
    x264 info: kb/s:2137.54
    iTunes Tags


    Sort Name: The Crow: City of Angels
    XID: Apple:vendor_id:1996-12333
    Content ID: 48942808
    Copyright: Bad Bird Productions, Dimension Films, Jeff Most Productions
    ScreenWriters: Дэвид С. Гойер, Джеймс О’Барр
    Producers: Джефф Мост, Эдвард Р. Прессман, Алессандро Камон
    Director: Тим Поуп
    Cast: Венсан Перес, Миа Киршнер, Ричард Брукс, Игги Поп, Томас Джейн, Винсент Кастельянос, Туи Транг, Эрик Акоста, Иэн Дёри, Трейси Эллис // Vincent Perez (Ashe Corven), Mia Kirshner (Sarah), Iggy Pop (Curve), Thomas Jane (Nemo), Richard Brooks (Judah Earl), Thuy Trang (Kali), Vincent Castellanos (Spider Monkey), Eric Acosta (Danny), Ian Dury (Noah), Tracey Ellis (Sybil), Beverley Mitchell (Grace), Aaron Thell Smith (Tattoo Customer), Alan Gelfant (Bassett), Shelly Desai (Hindu)
    Rating: R
    Long Deion: Свидетель жестокой расправы Эш Корвен, сам становится жертвой. Восставший из мертвых, он вступает в борьбу с силами зла в Лос-Анджелесе. Вместе с художницей, которой он снился во сне, Эш начинает мстить своим убийцам!
    Deion: Свидетель жестокой расправы Эш Корвен, сам становится жертвой. Восставший из мертвых, он вступает в борьбу с силами зла в Лос-Анджелесе. Вместе с художницей, которой он снился во сне, Эш начинает мстить своим убийцам!
    Release Date: 1996-08-30T08:00:00Z
    Genre: Fantasy
    Artist: Tim Pope
    Name: Ворон 2: Город ангелов
    Comments: It;s another time. It;s another world. And another has been chosen






    Залил: gekka
    Размер скачиваемого торрента: 1.56 GB (1675571389 Bytes)

    Ворон 2: Город ангелов / The Crow: City of Angels (1996) BDRip-AVC | iPad | P торрент скачать бесплатно
    загрузка...
    Рейтинг →
     (голосов: 1, оценка 3/5, голосовать можно 1 раз )

    Другие торренты по теме:

  • Ворон 2: Город ангелов / The Crow: City of Angels (1996) HDRip
  • Ворон 2: Город ангелов / The Crow: City of Angels (1996) BDRip 1080p


    • Комментарии (0):

      Информация

      Информация

        Посетители, находящиеся в группе Гости, не могут оставлять комментарии в данной новости.

        ↓ Меню



        ↓ Опрос

        А Вы добавили сайт в закладки?
        Да
        Не


        Top 10 за месяц (Фильмы)