.
Авторизация | Регистрация
Хочешь лучшие торренты? Добавь свой email!
Добавить
» » Смерть в сети / The Den (2013) WEB-DLRip-AVC | iPhone | D скачать через торрент бесплатно




    Смерть в сети / The Den (2013) WEB-DLRip-AVC | iPhone | D скачать через торрент бесплатно

    Опубликовал: Админ | Дата: 27-02-2015, 11:10 | Просмотров: 310



    Смерть в сети / The Den (2013) WEB-DLRip-AVC | iPhone | D
    А что если вы увидите...

    Русское название: Смерть в сети
    Русское название в мировом прокате: The Den
    Создали в: 2013
    Категория жанра: ужасы, триллер
    Главный режиссер: Захари Донохью
    Актеры: Мелани Папалиа, Дэвид Шлачтенхауфен, Мэтт Риди, Адам Шапиро, Брайан Белл, Рон Боттитта, Кирк Бовилл, Тристиан Чейз, Сайда Аррика Экулона, Гарретт Форнандер

    Сюжет фильма:
    Молодая женщина изучает привычки участников чата с использованием веб-камеры и невольно становится свидетелем жестокого убийства, теперь она и ее близкие становятся мишенью неизвестного маньяка. В США фильма получил рейтинг R за кровавые сцены насилия, ненормативную лексику.



    Снималось в: США
    Киностудия: Cliffbrook Films, Onset Films

    Время просмотра: 01:16:46
    Перевод текста: Русский дублированный

    Файл
    Кодек для видео: H.264
    Качество фильма: WEB-DLRip 480p
    Информация о видео: 640x480@852x480 (16:9) at 23.976 fps, AVC at 1200 kbps
    Информация о звуке:
    1: АAС 2.0 121 kbps - Русский дублированный
    2: АAС 2.0 121 kbps - Английский
    Субтитры: отсутствуют

    MI

    General
    Complete name : C:CREATE264mod1outThe.Den.2013.480p.D.m4v
    Format : MPEG-4
    Codec ID : M4V
    File size : 793 MiB
    Duration : 1h 16mn
    Overall bit rate mode : Variable
    Overall bit rate : 1 444 Kbps
    Movie name : Смерть в сети
    Performer : Zachary Donohue
    Genre : Horror
    ContentType : Short Film
    Deion : Молодая женщина изучает привычки пользователей чата с использованием веб-камеры и невольно становится свидетелем жестокого убийства…
    Recorded date : UTC 2014-03-14 07:00:00
    Encoded date : UTC 2014-05-10 06:16:19
    Tagged date : UTC 2014-05-10 06:35:18
    Copyright : Cliffbrook Films, Onset Films
    Cover : Yes
    Comment : А что если вы увидите...
    ContentRating : mpaa|R|400|

    Title/Sort : The Den
    LongDeion : Молодая женщина изучает привычки пользователей чата с использованием веб-камеры и невольно становится свидетелем жестокого убийства…
    AppleStoreCatalogID : 826192915
    Vendor : Apple:vendor_id:2013-715898

    Video
    ID : 1
    Format : AVC
    Format/Info : Advanced Video Codec
    Format profile : Baseline@L3.0
    Format settings, CABAC : No
    Format settings, ReFrames : 2 frames
    Codec ID : avc1
    Codec ID/Info : Advanced Video Coding
    Duration : 1h 16mn
    Bit rate : 1 191 Kbps
    Maximum bit rate : 7 050 Kbps
    Width : 640 pixels
    Height : 480 pixels
    Display aspect ratio : 16:9
    Frame rate mode : Constant
    Frame rate : 23.976 fps
    Color space : YUV
    Chroma subsampling : 4:2:0
    Bit depth : 8 bits
    Scan type : Progressive
    Bits/(Pixel*Frame) : 0.162
    Stream size : 654 MiB (82%)
    Title : The Den _2013_
    Language : English
    Encoded date : UTC 2014-05-10 06:16:19
    Tagged date : UTC 2014-05-10 06:16:26
    Matrix coefficients : BT.709

    Audio #1
    ID : 2
    Format : AAC
    Format/Info : Advanced Audio Codec
    Format profile : LC
    Codec ID : 40
    Duration : 1h 16mn
    Bit rate mode : Variable
    Bit rate : 121 Kbps
    Maximum bit rate : 168 Kbps
    Channel(s) : 2 channels
    Channel positions : Front: L R
    Sampling rate : 48.0 KHz
    Compression mode : Lossy
    Stream size : 66.5 MiB (8%)
    Title : Dub
    Language : Russian
    Encoded date : UTC 2014-05-10 06:12:05
    Tagged date : UTC 2014-05-10 06:16:26

    Audio #2
    ID : 3
    Format : AAC
    Format/Info : Advanced Audio Codec
    Format profile : LC
    Codec ID : 40
    Duration : 1h 16mn
    Bit rate mode : Variable
    Bit rate : 123 Kbps
    Maximum bit rate : 165 Kbps
    Channel(s) : 2 channels
    Channel positions : Front: L R
    Sampling rate : 48.0 KHz
    Compression mode : Lossy
    Stream size : 67.3 MiB (8%)
    Title : Original
    Language : English
    Encoded date : UTC 2014-05-10 06:14:56
    Tagged date : UTC 2014-05-10 06:16:26

    Text
    ID : 4
    Format : Timed Text
    Muxing mode : sbtl
    Codec ID : tx3g
    Duration : 1h 16mn
    Bit rate mode : Variable
    Bit rate : 124 bps
    Stream size : 69.7 KiB (0%)
    Title : Subtitle English
    Language : English
    Encoded date : UTC 2014-05-10 06:16:26
    Tagged date : UTC 2014-05-10 06:16:26

    Menu
    ID : 5
    Codec ID : text
    Duration : 1h 16mn
    Encoded date : UTC 2014-05-10 06:16:33
    Tagged date : UTC 2014-05-10 06:16:33
    Bit rate mode : CBR

    x264

    x264 info: frame I:2912 Avg QP:16.23 size: 19138
    x264 info: frame P:107524 Avg QP:18.08 size: 5860
    x264 info: mb I I16..4: 52.4% 0.0% 47.6%
    x264 info: mb P I16..4: 1.7% 0.0% 1.7% P16..4: 40.4% 9.2% 5.2% 0.8% 0.3% skip:40.7%
    x264 info: coded y,uvDC,uvAC intra: 46.7% 62.2% 39.1% inter: 23.2% 21.7% 11.0%
    x264 info: i16 v,h,dc,p: 47% 16% 7% 30%
    x264 info: i4 v,h,dc,ddl,ddr,vr,hd,vl,hu: 31% 17% 14% 6% 7% 8% 6% 7% 4%
    x264 info: i8c dc,h,v,p: 56% 15% 21% 7%
    x264 info: ref P L0: 82.4% 17.6%
    x264 info: kb/s:1191.14
    iTunes tags


    Sort Name: The Den
    XID: Apple:vendor_id:2013-715898
    Content ID: 826192915
    Copyright: Cliffbrook Films, Onset Films
    ScreenWriters: Захари Донохью, Лорен Томпсон
    Producers: Дэвид Брукс, Дэн Клифтон, Бернард Хант
    Director: Захари Донохью
    Cast: Мелани Папалиа, Дэвид Шлачтенхауфен, Мэтт Риди, Адам Шапиро, Брайан Белл, Рон Боттитта, Кирк Бовилл, Тристиан Чейз, Сайда Аррика Экулон // Melanie Papalia (Elizabeth Benton), Matt Riedy (Sgt. Tisbert), Adam Shapiro (Max), David Schlactenhaufen, Bill Oberst Jr. (Skeeter), Katija Pevec (Jenni), Lilly Holleman (Jenny), Ron Bottitta (Brianne;s Dad), Anna Margaret Hollyman (Lyn), Shannon Mosley (Masked Killer), Kirk Bovill (Dale)
    Rating: R
    Long Deion: Молодая женщина изучает привычки пользователей чата с использованием веб-камеры и невольно становится свидетелем жестокого убийства…
    Deion: Молодая женщина изучает привычки пользователей чата с использованием веб-камеры и невольно становится свидетелем жестокого убийства…
    Release Date: 2014-03-14T07:00:00Z
    Genre: Horror
    Artist: Zachary Donohue
    Name: Смерть в сети
    Comments: А что если вы увидите...






    Залил: gekka
    Размер скачиваемого торрента: 793.02 MB (831537546 Bytes)

    Смерть в сети / The Den (2013) WEB-DLRip-AVC | iPhone | D скачать через торрент бесплатно
    загрузка...
    Рейтинг →
     (голосов: 1, оценка 3/5, голосовать можно 1 раз )

    Другие торренты по теме:

  • Смерть в раю / Death In Paradise (2013) HDTVRip | L2
  • Загребельный Павло (Павел Архипович) - Смерть в Киеве (2011) MP3
  • Гарднер Эрл Стэнли - Смерть в конюшне (2012) MP3
  • Правосудие Стоуна: Смерть в раю / Jesse Stone: Death in Paradise (2006) DVD5 от Youtracker | P | Лицензия
  • Смерть в любви / Death in Love (2008) SATRip
  • Смерть в сети (2013) скачать через торрент бесплатно
  • Смерть в раю / Death in Paradise (2011) SATRip | Fox Crime
  • Смерть в раю / Death In Paradise (2014) HDTVRip | L2


    • Комментарии (0):

      Информация

      Информация

        Посетители, находящиеся в группе Гости, не могут оставлять комментарии в данной новости.

        ↓ Меню



        ↓ Опрос

        А Вы добавили сайт в закладки?
        Да
        Не


        Top 10 за месяц (Фильмы)