.
Авторизация | Регистрация
Хочешь лучшие торренты? Добавь свой email!
Добавить
» » Джек Райан: Теория хаоса / Jack Ryan: Shadow Recruit (2014) BDRip 720p | Чистый звук скачать через торрент бесплатно




    Джек Райан: Теория хаоса / Jack Ryan: Shadow Recruit (2014) BDRip 720p | Чистый звук скачать через торрент бесплатно

    Опубликовал: Админ | Дата: 27-02-2015, 11:10 | Просмотров: 155



    Детально о кино
    Русское название: Джек Райан: Теория хаоса
    Русское название в мировом прокате: Jack Ryan: Shadow Recruit
    Создали в: 2014
    Категория жанра: боевик, триллер, драма
    Главный режиссер: Кеннет Брэна
    Актеры: Крис Пайн, Кира Найтли, Кевин Костнер, Кеннет Брэна, Алек Утгофф, Джемма Чан, Петер Андерссон, Елена Великанова, Нонсо Анози, Колм Фиор

    Сюжет фильма: Являющийся финансовым аналитиком Райан переезжает в Москву для работы на некоего миллиардера. И именно этот нувориш обставит дела таким образом, чтобы на Райна пали все подозрения в организации террористического сговора с целью обрушить экономику США. И Джеку не остается ничего иного, как попытаться одновременно очистить свое имя, обезвредить заговор и спасти жену, взятую миллиардером в заложники.



    Снималось в: США, Россия, Paramount Pictures, Skydance Productions, Mace Neufeld Productions
    Время просмотра: 01:45:32
    Перевод текста: Профессиональный (полное дублирование) - Чистый звук

    Файл
    Качество фильма: BDRip 720p
    Тип видео: MKV
    Информация о видео: MPEG4/AVC, 1280x536 (2.40:1), 4400 Кбит/сек, 23.976 кадра/сек
    Информация о звуке 1: AC3, 2 канала, 320 Кбит/сек | Чистый звук
    Информация о звуке 2: AC3, 6 каналов, 640 Кбит/сек | Английский
    Субтитры: Английские (форс., полные, SDH)
    Навигация по главам: Есть
    Информация о видеоряд: CHD

    MediaInfo:
    Общее
    Уникальный идентификатор : 196920146079719458876535591741427544902 (0x942570CB154E088695CEA6963FDBF346)
    Полное имя : Jack Ryan. Shadow Recruit. (2014) BDRip 720p.mkv
    Формат : Matroska
    Версия формата : Version 2
    Размер файла : 3,95 Гбайт
    Продолжительность : 1 ч. 45 м.
    Общий поток : 5342 Кбит/сек
    Название фильма : Jack Ryan. Shadow Recruit. 2014
    Дата кодирования : UTC 2014-05-10 13:00:40
    Программа кодирования : mkvmerge v5.8.0 (;No Sleep / Pillow;) built on Sep 2 2012 15:37:04
    Библиотека кодирования : libebml v1.2.3 + libmatroska v1.3.0

    Видео
    Идентификатор : 1
    Формат : AVC
    Формат/Информация : Advanced Video Codec
    Профиль формата : High@L4.1
    Параметр CABAC формата : Да
    Параметр ReFrames формата : 10 кадров
    Идентификатор кодека : V_MPEG4/ISO/AVC
    Продолжительность : 1 ч. 45 м.
    Битрейт : 4400 Кбит/сек
    Ширина : 1280 пикселей
    Высота : 536 пикселей
    Соотношение сторон : 2,40:1
    Режим частоты кадров : Постоянный
    Частота кадров : 23,976 кадра/сек
    Цветовое пространство : YUV
    Субдискретизация насыщенности : 4:2:0
    Битовая глубина : 8 бит
    Тип развёртки : Прогрессивная
    Бит/(Пиксели*Кадры) : 0.267
    Размер потока : 3,16 Гбайт (80%)
    Заголовок : CHD
    Библиотека кодирования : x264 core 138 r2356 a1d3d17
    Настройки программы : cabac=1 / ref=10 / deblock=1:-3:-3 / analyse=0x3:0x113 / me=umh / subme=10 / psy=1 / psy_rd=1.00:0.05 / mixed_ref=1 / me_range=32 / chroma_me=1 / trellis=2 / 8x8dct=1 / cqm=0 / deadzone=21,11 / fast_pskip=0 / chroma_qp_offset=-2 / threads=18 / lookahead_threads=1 / sliced_threads=0 / nr=0 / decimate=1 / interlaced=0 / bluray_compat=0 / constrained_intra=0 / bframes=4 / b_pyramid=2 / b_adapt=2 / b_bias=0 / direct=3 / weightb=1 / open_gop=0 / weightp=2 / keyint=250 / keyint_min=23 / scenecut=40 / intra_refresh=0 / rc=2pass / mbtree=0 / bitrate=4400 / ratetol=1.0 / qcomp=0.70 / qpmin=0 / qpmax=69 / qpstep=4 / cplxblur=20.0 / qblur=0.5 / ip_ratio=1.40 / pb_ratio=1.30 / aq=2:1.00
    Язык : English
    Default : Да
    Forced : Нет

    Аудио #1
    Идентификатор : 2
    Формат : AC-3
    Формат/Информация : Audio Coding 3
    Расширение режима : CM (complete main)
    Параметр Endianness формата : Big
    Идентификатор кодека : A_AC3
    Продолжительность : 1 ч. 45 м.
    Вид битрейта : Постоянный
    Битрейт : 320 Кбит/сек
    Каналы : 2 канала
    Расположение каналов : Front: L R
    Частота : 48,0 КГц
    Битовая глубина : 16 бит
    Метод сжатия : С потерями
    Размер потока : 242 Мбайт (6%)
    Заголовок : Line
    Язык : Russian
    Default : Да
    Forced : Нет

    Аудио #2
    Идентификатор : 3
    Формат : AC-3
    Формат/Информация : Audio Coding 3
    Расширение режима : CM (complete main)
    Параметр Endianness формата : Big
    Идентификатор кодека : A_AC3
    Продолжительность : 1 ч. 45 м.
    Вид битрейта : Постоянный
    Битрейт : 640 Кбит/сек
    Каналы : 6 каналов
    Расположение каналов : Front: L C R, Side: L R, LFE
    Частота : 48,0 КГц
    Битовая глубина : 16 бит
    Метод сжатия : С потерями
    Размер потока : 484 Мбайт (12%)
    Заголовок : Eng
    Язык : English
    Default : Нет
    Forced : Нет

    Текст #1
    Идентификатор : 4
    Формат : UTF-8
    Идентификатор кодека : S_TEXT/UTF8
    Идентификатор кодека/Информация : UTF-8 Plain Text
    Заголовок : Forced
    Язык : English
    Default : Да
    Forced : Да

    Текст #2
    Идентификатор : 5
    Формат : UTF-8
    Идентификатор кодека : S_TEXT/UTF8
    Идентификатор кодека/Информация : UTF-8 Plain Text
    Заголовок : Full
    Язык : English
    Default : Нет
    Forced : Нет

    Текст #3
    Идентификатор : 6
    Формат : UTF-8
    Идентификатор кодека : S_TEXT/UTF8
    Идентификатор кодека/Информация : UTF-8 Plain Text
    Заголовок : SDH
    Язык : English
    Default : Нет
    Forced : Нет

    Меню
    00:00:00.000 : en:00:00:00.000
    00:05:45.470 : en:00:05:45.470
    00:12:02.472 : en:00:12:02.472
    00:18:11.007 : en:00:18:11.007
    00:23:38.792 : en:00:23:38.792
    00:31:19.795 : en:00:31:19.795
    00:40:26.299 : en:00:40:26.299
    00:48:47.466 : en:00:48:47.466
    00:57:28.070 : en:00:57:28.070
    01:06:19.642 : en:01:06:19.642
    01:13:07.466 : en:01:13:07.466
    01:21:53.867 : en:01:21:53.867
    01:27:07.097 : en:01:27:07.097
    01:35:21.507 : en:01:35:21.507
    01:38:55.054 : en:01:38:55.054

    Скриншоты для ознакомления:


    Релиз подготовил:
    Размер скачиваемого торрента: 3.95 GB (4238829872 Bytes)

    Джек Райан: Теория хаоса / Jack Ryan: Shadow Recruit (2014) BDRip 720p | Чистый звук скачать через торрент бесплатно
    загрузка...
    Рейтинг →
     (голосов: 1, оценка 4/5, голосовать можно 1 раз )

    Другие торренты по теме:

  • Джек Райан: Теория хаоса / Jack Ryan: Shadow Recruit (2013) HD 1080p | L1 | Трейлер
  • Джек Райан: Теория хаоса (2014)
  • Джек Райан: Теория хаоса / Jack Ryan: Shadow Recruit (2014) CAMRip
  • OST - Джек Райан: Теория хаоса / Jack Ryan: Shadow Recruit (2014) MP3
  • Джек Райан: Теория хаоса / Jack Ryan: Shadow Recruit (2014) CAMRip *PROPER* | Звук с TS
  • Джек Райан: Теория хаоса / Jack Ryan: Shadow Recruit (2014) HDRip-AVC от ExKinoRay | Чистый звук скачать через торрент бесплатно
  • Джек Райан: Теория хаоса / Jack Ryan: Shadow Recruit (2014) HDRip от Scarabey | Чистый звук скачать через торрент бесплатно
  • Джек Райан: Теория хаоса / Jack Ryan: Shadow Recruit (2014) BDRip 1080p | Чистый звук скачать через торрент бесплатно


    • Комментарии (0):

      Информация

      Информация

        Посетители, находящиеся в группе Гости, не могут оставлять комментарии в данной новости.

        ↓ Меню



        ↓ Опрос

        А Вы добавили сайт в закладки?
        Да
        Не


        Top 10 за месяц (Фильмы)