.
Авторизация | Регистрация
Хочешь лучшие торренты? Добавь свой email!
Добавить
» » Охотники за сокровищами / The Monuments Men (2014) BDRip 720p | Чистый звук скачать через торрент бесплатно




    Охотники за сокровищами / The Monuments Men (2014) BDRip 720p | Чистый звук скачать через торрент бесплатно

    Опубликовал: Админ | Дата: 27-02-2015, 11:10 | Просмотров: 162





    Детально о кино
    Русское название: Охотники за сокровищами
    Русское название в мировом прокате: The Monuments Men
    Создали в: 2014
    Категория жанра: боевик, драма, военный, биография
    Главный режиссер: Джордж Клуни
    Актеры: Джордж Клуни, Мэтт Дэймон, Билл Мюррей, Джон Гудман, Жан Дюжарден, Боб Бэлабан, Хью Бонневилль, Кейт Бланшетт, Димитрий Леонидас, Юстус фон Донаньи

    Сюжет фильма: Фильм основан на реальных событиях — величайшей охоте на сокровища в истории. Во время Второй мировой войны команда из искусствоведов и хранителей музеев объединяется, чтобы спасти известные произведения искусства, похищенные нацистами, прежде чем те успеют их уничтожить.



    Снималось в: США, Германия
    Время просмотра: 01:58:34
    Тип перевода: Дублированное Чистый звук

    Файл
    Тип видео: MKV
    Качество фильма: BDRip 720p
    Информация о видео: 5000 kb/s, 1280x534
    Информация о звуке: Russian: AC3, 128 kb/s (2 ch) / English: DTS, 1510 kb/s (6 ch)
    Субтитры: English

    Семпл





    MI
    Format : Matroska
    Format version : Version 4 / Version 2
    File size : 5.49 GiB
    Duration : 1h 58mn
    Overall bit rate : 6 641 Kbps
    Encoded date : UTC 2014-05-10 16:18:52
    Writing application : mkvmerge v6.9.1 (;Blue Panther;) 64bit built on Apr 18 2014 18:23:38
    Writing library : libebml v1.3.0 + libmatroska v1.4.1

    Video
    ID : 1
    Format : AVC
    Format/Info : Advanced Video Codec
    Format profile : High@L4.1
    Format settings, CABAC : Yes
    Format settings, ReFrames : 12 frames
    Codec ID : V_MPEG4/ISO/AVC
    Duration : 1h 58mn
    Bit rate : 5 000 Kbps
    Width : 1 280 pixels
    Height : 534 pixels
    Display aspect ratio : 2.40:1
    Frame rate : 23.976 fps
    Color space : YUV
    Chroma subsampling : 4:2:0
    Bit depth : 8 bits
    Scan type : Progressive
    Bits/(Pixel*Frame) : 0.305
    Stream size : 4.03 GiB (73%)
    Writing library : x264 core 142 r2409+42 04be48a tMod 8-bit@4:2:0 X86_64
    Encoding settings : cabac=1 / ref=12 / deblock=1:-3:-2 / analyse=0x3:0x113 / me=umh / subme=10 / psy=1 / fade_compensate=0.00 / psy_rd=1.00:0.00 / mixed_ref=1 / me_range=32 / chroma_me=1 / trellis=2 / 8x8dct=1 / cqm=0 / deadzone=21,11 / fast_pskip=0 / chroma_qp_offset=-2 / threads=18 / lookahead_threads=3 / sliced_threads=0 / nr=0 / decimate=0 / interlaced=0 / bluray_compat=0 / constrained_intra=0 / fgo=0 / bframes=8 / b_pyramid=2 / b_adapt=2 / b_bias=0 / direct=3 / weightb=1 / open_gop=0 / weightp=2 / keyint=240 / keyint_min=24 / scenecut=40 / intra_refresh=0 / rc_lookahead=40 / rc=2pass / mbtree=0 / bitrate=5000 / ratetol=1.0 / qcomp=0.70 / qpmin=0:0:0 / qpmax=69:69:69 / qpstep=4 / cplxblur=20.0 / qblur=0.5 / vbv_maxrate=40000 / vbv_bufsize=30000 / nal_hrd=none / filler=0 / ip_ratio=1.20 / pb_ratio=1.20 / aq=4:0.85 / aq-sensitivity=10.00 / aq-factor=1.00:1.00:1.00 / aq2=0 / aq3=0
    Language : English
    Default : Yes
    Forced : No

    Audio #1
    ID : 2
    Format : AC-3
    Format/Info : Audio Coding 3
    Mode extension : CM (complete main)
    Format settings, Endianness : Big
    Codec ID : A_AC3
    Duration : 1h 58mn
    Bit rate mode : Constant
    Bit rate : 128 Kbps
    Channel(s) : 2 channels
    Channel positions : Front: L R
    Sampling rate : 48.0 KHz
    Bit depth : 16 bits
    Compression mode : Lossy
    Stream size : 108 MiB (2%)
    Language : Russian
    Default : Yes
    Forced : No

    Audio #2
    ID : 3
    Format : DTS
    Format/Info : Digital Theater Systems
    Codec ID : A_DTS
    Duration : 1h 58mn
    Bit rate mode : Constant
    Bit rate : 1 510 Kbps
    Channel(s) : 6 channels
    Channel positions : Front: L C R, Side: L R, LFE
    Sampling rate : 48.0 KHz
    Bit depth : 24 bits
    Compression mode : Lossy
    Stream size : 1.25 GiB (23%)
    Language : English
    Default : No
    Forced : No

    Text
    ID : 4
    Format : UTF-8
    Codec ID : S_TEXT/UTF8
    Codec ID/Info : UTF-8 Plain Text
    Language : English
    Default : Yes
    Forced : No
    Скриншоты для ознакомления

    Размер скачиваемого торрента: 5.49 GB (5896102865 Bytes)

    Охотники за сокровищами / The Monuments Men (2014) BDRip 720p | Чистый звук скачать через торрент бесплатно
    загрузка...
    Рейтинг →
     (голосов: 1, оценка 5/5, голосовать можно 1 раз )

    Другие торренты по теме:

  • Охотники за привидениями. Битва за Москву (2017) WEBRip от Files-х
  • Охотники за трюками / StuntBusters (2011) SATRip Sauliux
  • Охотники за реликвией / Das Jesus Video (2002) DVDRip-AVC | P
  • Охотники за головами / Headhunters / Hodejegerne (2011) HDRip от Youtracker | D
  • Охотники за разумом / Mindhunters (2004) BDRip-AVC
  • Настоящие охотники за привидениями / The Real Ghost Busters (1986) DVDRip
  • Охотники за скальпами / The Scalphunters (1968) BDRip - AVC от Тorrent-Хzona
  • OST - Охотники за привидениями / Ghostbusters (1984, 1989) MP3


    • Комментарии (0):

      Информация

      Информация

        Посетители, находящиеся в группе Гости, не могут оставлять комментарии в данной новости.

        ↓ Меню



        ↓ Опрос

        А Вы добавили сайт в закладки?
        Да
        Не


        Top 10 за месяц (Фильмы)