.
Авторизация | Регистрация
Хочешь лучшие торренты? Добавь свой email!
Добавить
» » Американский жиголо / American Gigolo (1980) BDRip 1080p by msltel | P, A скачать через торрент бесплатно




    Американский жиголо / American Gigolo (1980) BDRip 1080p by msltel | P, A скачать через торрент бесплатно

    Опубликовал: Админ | Дата: 27-02-2015, 11:10 | Просмотров: 266



    Русское название: Американский жиголо
    Русское название в мировом прокате: American Gigolo
    Создали в: 1980
    Категория жанра: Триллер, драма, криминал
    Снималось в: США, Paramount Pictures
    Главный режиссер: Пол Шредер
    Актеры: Ричард Гир, Лорен Хаттон, Гектор Элизондо, Нина Ван Палландт, Билл Дьюк, Брайан Дейвис, К. Каллэн, Том Стюарт, Патриция Карр, Дэвид Крайер, Кэрол Брюс, МакДональд Кэри

    Сюжет фильма: Второго такого не найти! Джулиан Кэй - единственный и неповторимый! Он легко изъясняется на шести языках. Он - изысканный, начитанный собеседник. Он чувственен и интеллигентен. Он безмерно элегантен и немыслимо привлекателен. Ни одна женщина не в силах устоять перед его чарами. Что, в сущности, и требуется Джулиану для его повседневной работы, так как он - профессиональный соблазнитель. Причём самый высокооплачиваемый в Голливуде. Его сердце защищено ледяным панцирем от лишних нежных чувств, которые внезапно могут возникнуть на службе или вне её, работе не должно мешать ничто! Казалось бы, в жизни прекрасного жиголо всё будет прекрасно. Но вот одну из клиенток Джулиана находят мёртвой, а самого его начинают подозревать в убийстве.

    Качество фильма: BDRip 1080p
    Размер скачиваемого торрента: 19.41 ГБ
    Время просмотра: 01:56:37

    Информация о видео: MPEG-4 AVC, 17 Mбит/с, 1920x1080
    Информация о звуке 1: русский, 48 kHz, AC3, 6 ch, 448 kbps avg, Профессиональный многоголосый
    Информация о звуке 2: русский, 48 kHz, AC3, 2 ch, 192 kbps avg, Профессиональный многоголосый, СТС
    Информация о звуке 3: русский, 48 kHz, AC3, 2 ch, 192 kbps avg, Авторский, Леонид Володарский
    Информация о звуке 4: русский, 48 kHz, AC3, 2 ch, 192 kbps avg, Авторский, Андрей Гаврилов (ранний)
    Информация о звуке 5: русский, 48 kHz, DTS, 6 ch, 1509 kbps avg, Авторский, Андрей Гаврилов (поздний)
    Информация о звуке 6: русский, 48 kHz, DTS, 6 ch, 1509 kbps avg, Авторский, Юрий Живов

    Внешние файлы
    Информация о звуке: русский, 48 kHz, AC3, 6 ch, 448 kbps avg, Авторский, Андрей Гаврилов (поздний)
    Информация о звуке: русский, 48 kHz, AC3, 6 ch, 448 kbps avg, Авторский, Юрий Живов
    Информация о звуке: английский, 48 kHz, DTS, 6 ch, 1509 kbps avg, Оригинал
    Субтитры: русские
    Субтитры: английские

    Исходник: ChuckNorriss (HDtracker)

    Сравнение с исходником



    MediaInfo + Лог х264
    Общее
    Полное имя : D:VideoAmerikanskij gigolo.1980.x264.BDRip.1080pAmerikanskij gigolo.1980.AVO.rus.А.Гаврилов (поздний).ac3
    Формат : AC-3
    Формат/Информация : Audio Coding 3
    Размер файла : 374 Мбайт
    Продолжительность : 1 ч. 56 м.
    Режим общего битрейта : Постоянный
    Общий поток : 448 Кбит/сек

    Аудио
    Формат : AC-3
    Формат/Информация : Audio Coding 3
    Расширение режима : CM (complete main)
    Параметр Endianness формата : Big
    Продолжительность : 1 ч. 56 м.
    Вид битрейта : Постоянный
    Битрейт : 448 Кбит/сек
    Каналы : 6 каналов
    Расположение каналов : Front: L C R, Side: L R, LFE
    Частота : 48,0 КГц
    Битовая глубина : 16 бит
    Метод сжатия : С потерями
    Размер потока : 374 Мбайт (100%)

    Общее
    Полное имя : D:VideoAmerikanskij gigolo.1980.x264.BDRip.1080pAmerikanskij gigolo.1980.AVO.rus.Ю.Живов.ac3
    Формат : AC-3
    Формат/Информация : Audio Coding 3
    Размер файла : 374 Мбайт
    Продолжительность : 1 ч. 56 м.
    Режим общего битрейта : Постоянный
    Общий поток : 448 Кбит/сек

    Аудио
    Формат : AC-3
    Формат/Информация : Audio Coding 3
    Расширение режима : CM (complete main)
    Параметр Endianness формата : Big
    Продолжительность : 1 ч. 56 м.
    Вид битрейта : Постоянный
    Битрейт : 448 Кбит/сек
    Каналы : 6 каналов
    Расположение каналов : Front: L C R, Side: L R, LFE
    Частота : 48,0 КГц
    Битовая глубина : 16 бит
    Метод сжатия : С потерями
    Размер потока : 374 Мбайт (100%)

    Общее
    Полное имя : D:VideoAmerikanskij gigolo.1980.x264.BDRip.1080pAmerikanskij gigolo.1980.eng.srt
    Формат : SubRip
    Размер файла : 91,9 Кбайт

    Текст
    Формат : SubRip
    Метод сжатия : Без потерь

    Общее
    Полное имя : D:VideoAmerikanskij gigolo.1980.x264.BDRip.1080pAmerikanskij gigolo.1980.Original.eng.dts
    Формат : DTS
    Формат/Информация : Digital Theater Systems
    Размер файла : 1,23 Гбайт
    Продолжительность : 1 ч. 56 м.
    Режим общего битрейта : Постоянный
    Общий поток : 1509 Кбит/сек

    Аудио
    Формат : DTS
    Формат/Информация : Digital Theater Systems
    Режим : 16
    Параметр Endianness формата : Big
    Продолжительность : 1 ч. 56 м.
    Вид битрейта : Постоянный
    Битрейт : 1509 Кбит/сек
    Каналы : 6 каналов
    Расположение каналов : Front: L C R, Side: L R, LFE
    Частота : 48,0 КГц
    Битовая глубина : 24 бит
    Метод сжатия : С потерями
    Размер потока : 1,23 Гбайт (100%)

    Общее
    Полное имя : D:VideoAmerikanskij gigolo.1980.x264.BDRip.1080pAmerikanskij gigolo.1980.rus.srt
    Формат : SubRip
    Размер файла : 115 Кбайт

    Текст
    Формат : SubRip
    Метод сжатия : Без потерь

    Общее
    Уникальный идентификатор : 239654141092709312837683184803675899134 (0xB44BB56AEAF102B3999F0D02B50004FE)
    Полное имя : D:VideoAmerikanskij gigolo.1980.x264.BDRip.1080pAmerikanskij gigolo.1980.x264.BDRip.1080p.mkv
    Формат : Matroska
    Версия формата : Version 4 / Version 2
    Размер файла : 17,5 Гбайт
    Продолжительность : 1 ч. 56 м.
    Общий поток : 21,4 Мбит/сек
    Дата кодирования : UTC 2014-05-04 08:27:07
    Программа кодирования : mkvmerge v6.9.1 (;Blue Panther;) 64bit built on Apr 18 2014 18:23:38
    Библиотека кодирования : libebml v1.3.0 + libmatroska v1.4.1

    Видео
    Идентификатор : 1
    Формат : AVC
    Формат/Информация : Advanced Video Codec
    Профиль формата : High@L4.1
    Параметр CABAC формата : Да
    Параметр ReFrames формата : 4 кадра
    Идентификатор кодека : V_MPEG4/ISO/AVC
    Продолжительность : 1 ч. 56 м.
    Битрейт : 17,0 Мбит/сек
    Ширина : 1920 пикселей
    Высота : 1080 пикселей
    Соотношение сторон : 16:9
    Режим частоты кадров : Постоянный
    Частота кадров : 23,976 кадра/сек
    Цветовое пространство : YUV
    Субдискретизация насыщенности : 4:2:0
    Битовая глубина : 8 бит
    Тип развёртки : Прогрессивная
    Бит/(Пиксели*Кадры) : 0.341
    Размер потока : 13,8 Гбайт (79%)
    Заголовок : BDRip -- STarankov
    Библиотека кодирования : x264 core 138 r2358 9e941d1
    Залил: msltel
    Размер скачиваемого торрента: 19.41 GB (20843974871 Bytes)


    Американский жиголо / American Gigolo (1980) BDRip 1080p by msltel | P, A скачать через торрент бесплатно
    загрузка...
    Рейтинг →
     (голосов: 1, оценка 3/5, голосовать можно 1 раз )

    Другие торренты по теме:

  • Американский жиголо / American Gigolo (1980) BDRip 720p от MediaClub | P скачать через торрент бесплатно
  • Американский жиголо / American Gigolo (1980) BDRemux 1080p от MediaClub | P
  • Американский жиголо / American Gigolo (1980) BDRip от HQCLUB скачать через торрент бесплатно


    • Комментарии (0):

      Информация

      Информация

        Посетители, находящиеся в группе Гости, не могут оставлять комментарии в данной новости.

        ↓ Меню



        ↓ Опрос

        А Вы добавили сайт в закладки?
        Да
        Не


        Top 10 за месяц (Фильмы)