.
Авторизация | Регистрация
Хочешь лучшие торренты? Добавь свой email!
Добавить
» » Большая игра / State of Play (2009) BDRip-AVC | iPad | D скачать через торрент бесплатно




    Большая игра / State of Play (2009) BDRip-AVC | iPad | D скачать через торрент бесплатно

    Опубликовал: Админ | Дата: 27-02-2015, 11:10 | Просмотров: 232



    Большая игра / State of Play (2009) BDRip-AVC | iPad | D

    Find The Truth

    Русское название: Большая игра
    Русское название в мировом прокате: State of Play
    Создали в: 2009
    Категория жанра: драма, детектив
    Главный режиссер: Кевин МакДональд
    Актеры: Рассел Кроу, Бен Аффлек, Рэйчел МакАдамс, Хелен Миррен, Робин Райт, Джейсон Бейтман, Джефф Дэниелс, Майкл Беррессе, Гарри Дж. Ленникс, Джош Мостел

    Сюжет фильма:
    Американский журналист Маккэффри расследует серию жестоких убийств. Одной из жертв становится любовница преуспевающего конгрессмена Коллинза, давнего друга Маккэффри. Улики открывают перед журналистом цепочку чудовищных заговоров, ведущих в высшие политические круги страны. Люди, с которыми ему придется иметь дело, ворочают миллиардами долларов и не привыкли, когда в их дела вмешиваются посторонние.



    Снималось в: США, Великобритания, Франция
    Киностудия: Andell Entertainment, Relativity Media, Universal Pictures, Bevan-Fellner

    Время просмотра: 2:07:01
    Перевод текста: Русский дублированный

    Файл
    Кодек для видео: H.264
    Качество фильма: BDRip 576p
    Информация о видео: 1024x436 (2.35:1) at 23.967 fps, AVC at 2000 kbps
    Информация о звуке:
    1: АAС 2.0 144 kbps - Русский дублированный
    2: АAС 2.0 144 kbps - Английский
    Субтитры: отсутствуют

    MI

    General
    Complete name : I:modoutState.of.Play.2009.576p.D.m4v
    Format : MPEG-4
    Codec ID : M4V
    File size : 2.08 GiB
    Duration : 2h 7mn
    Overall bit rate mode : Variable
    Overall bit rate : 2 349 Kbps
    Movie name : Большая игра
    Performer : Kevin MacDonald
    Genre : Thriller
    ContentType : Short Film
    Deion : Американский журналист Маккэффри расследует серию жестоких убийств. Одной из жертв становится любовница преуспевающего конгрессмена Коллинза, давнего друга Маккэффри. Улики открывают перед журналистом цепочку чудовищных заговоров...
    Recorded date : UTC 2009-04-17 07:00:00
    Encoded date : UTC 2014-05-05 14:13:05
    Tagged date : UTC 2014-05-05 14:16:01
    Copyright : Universal Pictures, Working Title Films, StudioCanal
    Cover : Yes
    Comment : Find The Truth
    ContentRating : mpaa|PG-13|300|

    Title/Sort : State of Play
    LongDeion : Американский журналист Маккэффри расследует серию жестоких убийств. Одной из жертв становится любовница преуспевающего конгрессмена Коллинза, давнего друга Маккэффри. Улики открывают перед журналистом цепочку чудовищных заговоров, ведущих в высшие политические круги страны. Люди, с которыми ему придется иметь дело, ворочают миллиардами долларов и не привыкли, когда в их дела вмешиваются посторонние.
    AppleStoreCatalogID : 319783565
    Vendor : Apple:vendor_id:2009-261635

    Video
    ID : 1
    Format : AVC
    Format/Info : Advanced Video Codec
    Format profile : High@L4.1
    Format settings, CABAC : Yes
    Format settings, ReFrames : 9 frames
    Codec ID : avc1
    Codec ID/Info : Advanced Video Coding
    Duration : 2h 7mn
    Bit rate : 2 050 Kbps
    Maximum bit rate : 8 956 Kbps
    Width : 1 024 pixels
    Height : 436 pixels
    Display aspect ratio : 2.35:1
    Frame rate mode : Constant
    Frame rate : 23.976 fps
    Color space : YUV
    Chroma subsampling : 4:2:0
    Bit depth : 8 bits
    Scan type : Progressive
    Bits/(Pixel*Frame) : 0.192
    Stream size : 1.82 GiB (87%)
    Title : State.of.Play.2009
    Language : English
    Encoded date : UTC 2014-05-05 14:13:05
    Tagged date : UTC 2014-05-05 14:13:27
    Matrix coefficients : BT.709

    Audio #1
    ID : 2
    Format : AAC
    Format/Info : Advanced Audio Codec
    Format profile : LC
    Codec ID : 40
    Duration : 2h 7mn
    Bit rate mode : Variable
    Bit rate : 144 Kbps
    Maximum bit rate : 216 Kbps
    Channel(s) : 2 channels
    Channel positions : Front: L R
    Sampling rate : 48.0 KHz
    Compression mode : Lossy
    Stream size : 130 MiB (6%)
    Title : Dub
    Language : Russian
    Encoded date : UTC 2014-05-05 14:02:36
    Tagged date : UTC 2014-05-05 14:13:27

    Audio #2
    ID : 3
    Format : AAC
    Format/Info : Advanced Audio Codec
    Format profile : LC
    Codec ID : 40
    Duration : 2h 7mn
    Bit rate mode : Variable
    Bit rate : 144 Kbps
    Maximum bit rate : 223 Kbps
    Channel(s) : 2 channels
    Channel positions : Front: L R
    Sampling rate : 48.0 KHz
    Compression mode : Lossy
    Stream size : 131 MiB (6%)
    Title : Original
    Language : English
    Encoded date : UTC 2014-05-05 14:09:43
    Tagged date : UTC 2014-05-05 14:13:27

    Menu
    ID : 4
    Codec ID : text
    Duration : 2h 7mn
    Encoded date : UTC 2014-05-05 14:13:53
    Tagged date : UTC 2014-05-05 14:13:53
    Bit rate mode : CBR

    x264

    x264 info: frame I:1400 Avg QP:14.60 size: 64785
    x264 info: frame P:42435 Avg QP:17.49 size: 21570
    x264 info: frame B:138900 Avg QP:19.87 size: 6820
    x264 info: consecutive B-frames: 3.8% 3.7% 7.9% 18.4% 21.1% 30.2% 7.3% 3.4% 1.7% 1.1% 0.5% 0.4% 0.2% 0.3% 0.1%
    x264 info: mb I I16..4: 10.1% 60.5% 29.4%
    x264 info: mb P I16..4: 0.6% 6.6% 2.6% P16..4: 33.1% 38.3% 12.8% 3.7% 0.4% skip: 1.9%
    x264 info: mb B I16..4: 0.0% 0.5% 0.4% B16..8: 37.3% 20.8% 2.8% direct: 4.7% skip:33.3% L0:40.3% L1:44.6% BI:15.2%
    x264 info: 8x8 transform intra:63.5% inter:43.4%
    x264 info: coded y,uvDC,uvAC intra: 86.8% 78.9% 61.2% inter: 19.6% 13.0% 6.2%
    x264 info: i16 v,h,dc,p: 13% 13% 11% 64%
    x264 info: i8 v,h,dc,ddl,ddr,vr,hd,vl,hu: 16% 11% 7% 8% 11% 12% 11% 12% 12%
    x264 info: i4 v,h,dc,ddl,ddr,vr,hd,vl,hu: 39% 10% 5% 6% 9% 9% 8% 7% 8%
    x264 info: i8c dc,h,v,p: 31% 30% 23% 16%
    x264 info: Weighted P-Frames: Y:2.7% UV:1.4%
    x264 info: ref P L0: 60.5% 7.9% 13.5% 5.6% 4.0% 3.1% 2.5% 1.4% 1.3% 0.3% 0.0%
    x264 info: ref B L0: 83.5% 7.5% 3.7% 1.8% 1.3% 1.0% 0.8% 0.4%
    x264 info: ref B L1: 94.0% 6.0%
    x264 info: kb/s:2050.27
    iTunes Tags


    Sort Name: State of Play
    XID: Apple:vendor_id:2009-261635
    Content ID: 319783565
    Copyright: Universal Pictures, Working Title Films, StudioCanal
    ScreenWriters: Мэттью Майкл Карнахан, Тони Гилрой, Билли Рэй
    Producers: Тим Беван, Эрик Феллнер, Эндрю Хауптман
    Director: Кевин МакДональд
    Cast: Рассел Кроу, Бен Аффлек, Рэйчел МакАдамс, Хелен Миррен, Робин Райт, Джейсон Бейтман, Джефф Дэниелс, Майкл Беррессе, Гарри Дж. Ленникс, Джош Мостел // Russell Crowe (Cal McAffrey), Ben Affleck (Stephen Collins), Rachel McAdams (Della Frye), Helen Mirren (Cameron Lynne), Robin Wright (Anne Collins), Jason Bateman (Dominic Foy), Jeff Daniels (Senator George Fergus), Michael Berresse (Robert Bingham), Harry Lennix (Det. Donald Bell), Josh Mostel (Pete), Michael Weston (Hank), Barry Shabaka Henley (Gene Stavitz), Viola Davis (Dr. Judith Franklin), David Harbour (PointCorp Insider), Sarah Lord (Mandi Brokaw), Gregg Binkley (Ferris)
    Rating: PG-13
    Long Deion: Американский журналист Маккэффри расследует серию жестоких убийств. Одной из жертв становится любовница преуспевающего конгрессмена Коллинза, давнего друга Маккэффри. Улики открывают перед журналистом цепочку чудовищных заговоров, ведущих в высшие политические круги страны. Люди, с которыми ему придется иметь дело, ворочают миллиардами долларов и не привыкли, когда в их дела вмешиваются посторонние.
    Deion: Американский журналист Маккэффри расследует серию жестоких убийств. Одной из жертв становится любовница преуспевающего конгрессмена Коллинза, давнего друга Маккэффри. Улики открывают перед журналистом цепочку чудовищных заговоров...
    Release Date: 2009-04-17T07:00:00Z
    Genre: Thriller
    Artist: Kevin MacDonald
    Name: Большая игра
    Comments: Find The Truth



    full-size screenshots










    Залил: gekka
    Размер скачиваемого торрента: 2.08 GB (2238170778 Bytes)

    Большая игра / State of Play (2009) BDRip-AVC | iPad | D скачать через торрент бесплатно
    загрузка...
    Рейтинг →
     (голосов: 1, оценка 4/5, голосовать можно 1 раз )

    Другие торренты по теме:

  • Большая игра / State of Play (2009) HDRip от Scarabey | D
  • Большая игра / State of Play (2009) BDRip-AVC от Rulya74
  • Большая игра / State of Play (2009) BDRip 720p | D
  • Большая игра / State of Play (2009) BDRip 720p от NNNB
  • Большая игра (2015) HDRip
  • Большая игра / Big Game (2014) WEBRip | Звук с TS
  • Большая игра / Big Game (2014) WEBRip | Звук с TS
  • Большая игра / Suurriistaa / Big Game (2014) WEBRip | L2


    • Комментарии (0):

      Информация

      Информация

        Посетители, находящиеся в группе Гости, не могут оставлять комментарии в данной новости.

        ↓ Меню



        ↓ Опрос

        А Вы добавили сайт в закладки?
        Да
        Не


        Top 10 за месяц (Фильмы)