.
Авторизация | Регистрация
Хочешь лучшие торренты? Добавь свой email!
Добавить
» » Поезд на Юму / 3:10 to Yuma (2007) BDRip-AVC скачать торрент бесплатно




    Поезд на Юму / 3:10 to Yuma (2007) BDRip-AVC скачать торрент бесплатно

    Опубликовал: Админ | Дата: 27-02-2015, 11:09 | Просмотров: 321



    Информация о фильме
    Название: Потяг на Юму / Поезд на Юму
    Оригинальное название: 3:10 to Yuma
    Год выхода: 2007
    Жанр: вестерн, боевик, драма, криминал
    Режиссер: Джэймс Мэнголд
    В ролях: Рассел Кроу, Кристиан Бэйл, Бен Фостер, Питер Фонда, Гретхен Мол, Логан Лерман

    О фильме:
    История о суровой жизни на диком Западе 19-го века. Банда, ограбив дилижанс, остановилась в городке, чтобы запастись провизией и отдохнуть, но их главарь знаменитый Бен Уэйд(Рассел Кроу) был арестован. Его необходимо доставить в Юму – город, где есть федеральный суд. Одним из конвоиров, за плату в 200 долларов, решается быть Дэн Эванс(Кристиан Бэйл) – ветеран Гражданской войны, а теперь неудачливый фермер. Но верная Уейду банда хочет освободить своего главаря, тем более, что маршрут следования проходит по глухим местам, где можно нарваться на индейцев и других охотников за головами. Да и законопослушные граждане в благодарность за вознаграждение, предложенное бандой, готовы на всё…

    Официальный сайт

    Страна: США
    Студия: Lions Gate Entertainment
    Продолжительность: 02:02:29
    Перевод: Украинский Профессиональный (Закадровый многоголосый канал1 1) Русский Профессиональный (Закадровый двухголосый Гланц)

    Файл
    Кодек: AVC, x264
    Качество: BDRip-AVC
    Видео: 1280x534, 1 848 Кбит/сек, 23.976 кадр/сек
    Аудио #1 UKR: AC3 5.1, 384 Кбит/сек
    Аудио #2 RUS: AC3 5.1, 448 Кбит/сек
    Субтитры: Нет

    Семпл

    Скриншоты

    MediaInfo
    Complete name : 3.10 To Yuma (Рассел Кроу, Крістіан Бейл)_2007_UKR.RUS.mkv
    Format : Matroska
    Format version : Version 2
    File size : 2.29 GiB
    Duration : 2h 2mn
    Overall bit rate mode : Variable
    Overall bit rate : 2 673 Kbps
    Movie name : 3:10 to Yuma (Russell Crowe, Christian Bale)_2007
    Encoded date : UTC 2013-02-04 16:05:44
    Writing application : mkvmerge v4.0.0 (;The Stars were mine;) сборка от Jun 6 2010 16:18:42
    Writing library : libebml v1.0.0 libmatroska v1.0.0
    Attachment : Yes

    Video
    ID : 1
    Format : AVC
    Format/Info : Advanced Video Codec
    Format profile : High@L4.0
    Format settings, CABAC : Yes
    Format settings, ReFrames : 3 frames
    Codec ID : V_MPEG4/ISO/AVC
    Duration : 2h 2mn
    Bit rate mode : Variable
    Bit rate : 1 848 Kbps
    Maximum bit rate : 25.0 Mbps
    Width : 1 280 pixels
    Height : 534 pixels
    Display aspect ratio : 2.40:1
    Frame rate mode : Constant
    Frame rate : 23.976 fps
    Color space : YUV
    Chroma subsampling : 4:2:0
    Bit depth : 8 bits
    Scan type : Progressive
    Bits/(Pixel*Frame) : 0.113
    Stream size : 1.53 GiB (67%)
    Title : 3:10 to Yuma (Russell Crowe, Christian Bale)_2007
    Writing library : x264 core 96 r1613 81e75e9
    Encoding settings : cabac=1 / ref=3 / deblock=1:0:0 / analyse=0x3:0x133 / me=umh / subme=7 / psy=1 / psy_rd=1.00:0.00 / mixed_ref=1 / me_range=16 / chroma_me=1 / trellis=1 / 8x8dct=1 / cqm=0 / deadzone=21,11 / fast_pskip=1 / chroma_qp_offset=-2 / threads=3 / sliced_threads=0 / nr=0 / decimate=1 / interlaced=0 / constrained_intra=0 / bframes=3 / b_pyramid=0 / b_adapt=1 / b_bias=0 / direct=1 / weightb=1 / weightp=2 / keyint=240 / keyint_min=24 / scenecut=40 / intra_refresh=0 / rc_lookahead=40 / rc=2pass / mbtree=1 / bitrate=1848 / ratetol=1.0 / qcomp=0.60 / qpmin=10 / qpmax=51 / qpstep=4 / cplxblur=20.0 / qblur=0.5 / vbv_maxrate=25000 / vbv_bufsize=25000 / ip_ratio=1.40 / aq=1:1.00 / nal_hrd=vbr
    Language : English
    Default : Yes
    Forced : No

    Audio #1
    ID : 2
    Format : AC-3
    Format/Info : Audio Coding 3
    Mode extension : CM (complete main)
    Format settings, Endianness : Big
    Codec ID : A_AC3
    Duration : 2h 2mn
    Bit rate mode : Constant
    Bit rate : 384 Kbps
    Channel(s) : 6 channels
    Channel positions : Front: L C R, Side: L R, LFE
    Sampling rate : 48.0 KHz
    Bit depth : 16 bits
    Compression mode : Lossy
    Delay relative to video : 24ms
    Stream size : 336 MiB (14%)
    Title : MVO(1 1)
    Language : Ukrainian
    Default : Yes
    Forced : No

    Audio #2
    ID : 3
    Format : AC-3
    Format/Info : Audio Coding 3
    Mode extension : CM (complete main)
    Format settings, Endianness : Big
    Codec ID : A_AC3
    Duration : 2h 2mn
    Bit rate mode : Constant
    Bit rate : 448 Kbps
    Channel(s) : 6 channels
    Channel positions : Front: L C R, Side: L R, LFE
    Sampling rate : 48.0 KHz
    Bit depth : 16 bits
    Compression mode : Lossy
    Delay relative to video : 24ms
    Stream size : 393 MiB (17%)
    Title : DVO(GLANZ)
    Language : Russian
    Default : No
    Forced : No

    Размер: 2.29 GB (2456041857 Bytes)
    загрузка...
    Рейтинг →
     (голосов: 1, оценка 3/5, голосовать можно 1 раз )

    Другие торренты по теме:

  • Поезд на Юму / В 15:10 на Юму / 3:10 to Yuma (2007) HDRip от Scarabey | Р2 скачать через торрент бесплатно
  • Поезд на Дарджилинг. Отчаянные путешественники / The Darjeeling Limited (2007) BDRip 720p от DHT-Movies
  • Поезд на Юму / 3:10 to Yuma (2007) HDRip-AVC | iPhone
  • Поезд на Юму / 3:10 to Yuma (2007) BDRip-AVC от 0ptimus | D, P2, A скачать через торрент бесплатно
  • Поезд на Юму / 3:10 to Yuma (2007) BD-Remux 1080p скачать через торрент бесплатно
  • Поезд на Дарджилинг. Отчаянные путешественники / The Darjeeling Limited (2007) BDRip-AVC скачать через торрент бесплатно
  • Поезд на север (2013) HDTVRip 720p от MediaClub
  • Поезд на Юму / 3:10 to Yuma / 2007 / ДБ, ПМ, СТ / DVD-9


    • Комментарии (0):

      Информация

      Информация

        Посетители, находящиеся в группе Гости, не могут оставлять комментарии в данной новости.

        ↓ Меню



        ↓ Опрос

        А Вы добавили сайт в закладки?
        Да
        Не


        Top 10 за месяц (Фильмы)