.
Авторизация | Регистрация
Хочешь лучшие торренты? Добавь свой email!
Добавить
» » Леденец / Hard Candy (2005) BDRip-AVC | iPad | D скачать через торрент бесплатно




    Леденец / Hard Candy (2005) BDRip-AVC | iPad | D скачать через торрент бесплатно

    Опубликовал: Админ | Дата: 27-02-2015, 11:10 | Просмотров: 208



    Леденец / Hard Candy (2005) BDRip-AVC | iPad | D

    Русское название: Леденец
    Русское название в мировом прокате: Hard Candy
    Создали в: 2005
    Категория жанра: триллер, драма
    Главный режиссер: Дэвид Слэйд
    Актеры: Эллен Пейдж, Патрик Уилсон, Сандра О, Одесса Рэй, Гилберт Джо

    Сюжет фильма:
    14-летняя Лолита знакомится в интернете с 32-летним успешным фотографом Джефом Коулером. Он приглашает ее к себе домой. Подозревая, что Джефф является педофилом, и, стремясь разоблачить его, она отвечает согласием



    Снималось в: США
    Киностудия: Vulcan Productions, Launchpad Productions

    Время просмотра: 1:43:44
    Перевод текста: Русский дублированный

    Файл
    Кодек для видео: H.264
    Качество фильма: BDRip-AVC 576p
    Информация о видео: 1024x436 (2.35:1) at 23.976 fps, AVC at 3000 kbps
    Информация о звуке:
    1: АAС 2.0 137 kbps - Русский дублированный
    2: АAС 2.0 137 kbps - Английский
    Субтитры: отсутствуют

    MI

    General
    Complete name : I:modoutHard.Candy.2005.576p.D.m4v
    Format : MPEG-4
    Codec ID : M4V
    File size : 2.40 GiB
    Duration : 1h 43mn
    Overall bit rate mode : Variable
    Overall bit rate : 3 316 Kbps
    Movie name : Леденец
    Performer : David Slade
    Genre : Thriller
    ContentType : Short Film
    Deion : 14-летняя Лолита знакомится в интернете с 32-летним успешным фотографом Джефом Коулером. Он приглашает ее к себе домой. Подозревая, что Джефф является педофилом, и, стремясь разоблачить его, она отвечает согласием…
    Recorded date : UTC 2005-10-14 08:00:00
    Encoded date : UTC 2014-04-30 09:27:51
    Tagged date : UTC 2014-04-30 11:58:58
    Copyright : Vulcan Productions, Launchpad Productions
    Cover : Yes
    Comment : Strangers shouldn;t talk to little girls
    ContentRating : mpaa|R|400|

    Title/Sort : Hard Candy
    LongDeion : 14-летняя Лолита знакомится в интернете с 32-летним успешным фотографом Джефом Коулером. Он приглашает ее к себе домой. Подозревая, что Джефф является педофилом, и, стремясь разоблачить его, она отвечает согласием…
    AppleStoreCatalogID : 277035123
    Vendor : Apple:vendor_id:2005-86451

    Video
    ID : 1
    Format : AVC
    Format/Info : Advanced Video Codec
    Format profile : High@L4.1
    Format settings, CABAC : Yes
    Format settings, ReFrames : 11 frames
    Codec ID : avc1
    Codec ID/Info : Advanced Video Coding
    Duration : 1h 43mn
    Bit rate : 3 031 Kbps
    Maximum bit rate : 18.1 Mbps
    Width : 1 024 pixels
    Height : 436 pixels
    Display aspect ratio : 2.35:1
    Frame rate mode : Constant
    Frame rate : 23.976 fps
    Color space : YUV
    Chroma subsampling : 4:2:0
    Bit depth : 8 bits
    Scan type : Progressive
    Bits/(Pixel*Frame) : 0.283
    Stream size : 2.20 GiB (91%)
    Title : Hard Candy _2005_
    Language : English
    Encoded date : UTC 2014-04-30 09:27:51
    Tagged date : UTC 2014-04-30 09:28:22
    Matrix coefficients : BT.709

    Audio #1
    ID : 2
    Format : AAC
    Format/Info : Advanced Audio Codec
    Format profile : LC
    Codec ID : 40
    Duration : 1h 43mn
    Bit rate mode : Variable
    Bit rate : 137 Kbps
    Maximum bit rate : 224 Kbps
    Channel(s) : 2 channels
    Channel positions : Front: L R
    Sampling rate : 48.0 KHz
    Compression mode : Lossy
    Stream size : 101 MiB (4%)
    Title : Dub
    Language : Russian
    Encoded date : UTC 2014-04-30 09:20:40
    Tagged date : UTC 2014-04-30 09:28:22

    Audio #2
    ID : 3
    Format : AAC
    Format/Info : Advanced Audio Codec
    Format profile : LC
    Codec ID : 40
    Duration : 1h 43mn
    Bit rate mode : Variable
    Bit rate : 137 Kbps
    Maximum bit rate : 223 Kbps
    Channel(s) : 2 channels
    Channel positions : Front: L R
    Sampling rate : 48.0 KHz
    Compression mode : Lossy
    Stream size : 102 MiB (4%)
    Title : Original
    Language : English
    Encoded date : UTC 2014-04-30 09:25:04
    Tagged date : UTC 2014-04-30 09:28:22

    Menu
    ID : 4
    Codec ID : text
    Duration : 1h 43mn
    Encoded date : UTC 2014-04-30 09:28:50
    Tagged date : UTC 2014-04-30 09:28:50
    Bit rate mode : CBR

    iTunes tags


    Sort Name: Hard Candy
    XID: Apple:vendor_id:2005-86451
    Content ID: 277035123
    Copyright: Vulcan Productions, Launchpad Productions
    ScreenWriters: Брайан Нельсон
    Producers: Пол Дж. Аллен, Майкл Колдуэлл, Ричард Хаттон
    Director: Дэвид Слэйд
    Cast: Эллен Пейдж, Патрик Уилсон, Сандра О, Одесса Рэй, Гилберт Джон // Patrick Wilson (Jeff Kohlver), Ellen Page (Hayley Stark), Sandra Oh (Judy Tokuda), Odessa Rae (Janelle Rogers), G.J. Echternkamp (Nighthawks Clerk)
    Rating: R
    Long Deion: 14-летняя Лолита знакомится в интернете с 32-летним успешным фотографом Джефом Коулером. Он приглашает ее к себе домой. Подозревая, что Джефф является педофилом, и, стремясь разоблачить его, она отвечает согласием…
    Deion: 14-летняя Лолита знакомится в интернете с 32-летним успешным фотографом Джефом Коулером. Он приглашает ее к себе домой. Подозревая, что Джефф является педофилом, и, стремясь разоблачить его, она отвечает согласием…
    Release Date: 2005-10-14T08:00:00Z
    Genre: Thriller
    Artist: David Slade
    Name: Леденец
    Comments: Strangers shouldn;t talk to little girls

    x264

    x264 info: frame I:1337 Avg QP:14.99 size: 68968
    x264 info: frame P:37547 Avg QP:17.76 size: 28699
    x264 info: frame B:143565 Avg QP:20.07 size: 12191
    x264 info: consecutive B-frames: 1.7% 2.0% 6.2% 18.0% 19.6% 39.6% 5.0% 2.6% 1.6% 2.6% 0.4% 0.1%
    x264 info: mb I I16..4: 10.5% 59.9% 29.6%
    x264 info: mb P I16..4: 0.7% 9.1% 2.3% P16..4: 31.1% 36.3% 12.7% 3.0% 0.4% skip: 4.4%
    x264 info: mb B I16..4: 0.0% 2.2% 0.3% B16..8: 36.4% 18.4% 3.2% direct: 6.9% skip:32.7% L0:41.0% L1:44.2% BI:14.8%
    x264 info: 8x8 transform intra:77.4% inter:40.8%
    x264 info: coded y,uvDC,uvAC intra: 95.6% 70.6% 51.6% inter: 24.7% 10.9% 3.9%
    x264 info: i16 v,h,dc,p: 9% 11% 11% 69%
    x264 info: i8 v,h,dc,ddl,ddr,vr,hd,vl,hu: 9% 10% 15% 9% 12% 11% 12% 10% 13%
    x264 info: i4 v,h,dc,ddl,ddr,vr,hd,vl,hu: 10% 8% 8% 11% 14% 13% 12% 11% 13%
    x264 info: i8c dc,h,v,p: 32% 34% 17% 17%
    x264 info: Weighted P-Frames: Y:5.1% UV:2.7%
    x264 info: ref P L0: 53.8% 7.9% 15.2% 6.7% 4.7% 3.5% 2.8% 1.6% 1.4% 1.2% 1.1% 0.1% 0.0%
    x264 info: ref B L0: 78.0% 9.1% 4.8% 2.4% 1.7% 1.3% 1.1% 0.7% 0.6% 0.4%
    x264 info: ref B L1: 92.7% 7.3%
    x264 info: kb/s:3069.80


    full-size screenshots










    Залил: gekka
    Размер скачиваемого торрента: 2.40 GB (2579858317 Bytes)

    Леденец / Hard Candy (2005) BDRip-AVC | iPad | D скачать через торрент бесплатно
    загрузка...
    Рейтинг →
     (голосов: 1, оценка 4/5, голосовать можно 1 раз )

    Другие торренты по теме:

  • Леденец / Hard Candy (2005) HDRip от Scarabey | D
  • Леденец / Hard Candy (2005) BDRip 720p от HQ-ViDEO
  • Леденец / Hard Candy (2005) BDRip-AVC от MediaClub | D
  • Леденец / Hard Candy (2005) BDRip 1080p | A
  • Брайтонский леденец / Brighton Rock (2010) BDRip 1080p | L1
  • Брайтонский леденец / Brighton Rock (2010) BDRip 720p | L1


    • Комментарии (0):

      Информация

      Информация

        Посетители, находящиеся в группе Гости, не могут оставлять комментарии в данной новости.

        ↓ Меню



        ↓ Опрос

        А Вы добавили сайт в закладки?
        Да
        Не


        Top 10 за месяц (Фильмы)