.
Авторизация | Регистрация
Хочешь лучшие торренты? Добавь свой email!
Добавить
» » Челленджер / The Challenger (2013) BDRip-AVC | P скачать через торрент бесплатно




    Челленджер / The Challenger (2013) BDRip-AVC | P скачать через торрент бесплатно

    Опубликовал: Админ | Дата: 27-02-2015, 11:10 | Просмотров: 178



    Детально о кино
    Русское название: Челленджер
    Русское название в мировом прокате: The Challenger
    Создали в: 2013
    Категория жанра: драма
    Главный режиссер: Джеймс Хоуз
    Актеры: Уильям Хёрт, Брюс Гринвуд, Джоэнн Уэлли, Брайан Деннехи, Кевин МакНэлли, Лэнгли Кирквуд, Ив Бест, Шон Майкл, Генри Гудман, Роберт Хоббс

    Сюжет фильма:
    Кинокартина основана на реальных, трагических событиях, которые произошли в США, 1986 год. Космический корабль Челленджер, взорвался на 73 секунде полета, погибли все семеро членов экипажа. Что же стало причиной катастрофы? Известному ученому Ричарду Фейнману, поручено расследовать это дело и выяснить реальные причины трагедии.




    Снималось в: Великобритания, США
    Киностудия: BBC Films, Moonlighting Films South Africa, Pictureshow Productions...
    Время просмотра: 01:29:09
    Перевод текста: Профессиональное (многоголосое) Amedia

    Файл
    Кодек для видео: h.264 (MKV)
    Качество фильма: BDRip-AVC
    Информация о видео: AVC, 1024 x 576, ~1939 kbps
    Информация о звуке: Русский / Английский: AC-3, 2 ch, 192 kbps
    Субтитры: Английский

    Семпл

    Скриншоты для ознакомления
    MI
    Общее
    Уникальный идентификатор : 168348648403719580577546155723716462494 (0x7EA6C532C2870C1E037BA147C20E879E)
    Полное имя : H:Челленджер The ChallengerЧелленджер The Challenger (2013) BDRip-AVCThe.Challenger.2013.BDRip-AVC.mkv
    Формат : Matroska
    Версия формата : Version 2
    Размер файла : 1,48 Гбайт
    Продолжительность : 1 ч. 29 м.
    Режим общего битрейта : Переменный
    Общий поток : 2370 Кбит/сек
    Программа кодирования : Lavf51.12.1
    Библиотека кодирования : Lavf51.12.1

    Видео
    Идентификатор : 1
    Формат : AVC
    Формат/Информация : Advanced Video Codec
    Профиль формата : Baseline@L3.1
    Параметр CABAC формата : Нет
    Параметр ReFrames формата : 1 кадр
    Параметр GOP формата : M=1, N=12
    Идентификатор кодека : V_MPEG4/ISO/AVC
    Продолжительность : 1 ч. 29 м.
    Вид битрейта : Переменный
    Битрейт : 1939 Кбит/сек
    Максимальный битрейт : 2850 Кбит/сек
    Ширина : 1024 пикселя
    Высота : 576 пикселей
    Соотношение сторон : 16:9
    Режим частоты кадров : Постоянный
    Частота кадров : 25,000 кадров/сек
    Частота кадров в оригинале : 24,000 кадра/сек
    Цветовое пространство : YUV
    Субдискретизация насыщенности : 4:2:0
    Битовая глубина : 8 бит
    Тип развёртки : Прогрессивная
    Бит/(Пиксели*Кадры) : 0.132
    Размер потока : 1,21 Гбайт (82%)
    Язык : English
    Default : Да
    Forced : Нет

    Аудио #1
    Идентификатор : 2
    Формат : AC-3
    Формат/Информация : Audio Coding 3
    Расширение режима : CM (complete main)
    Параметр Endianness формата : Big
    Идентификатор кодека : A_AC3
    Продолжительность : 1 ч. 29 м.
    Вид битрейта : Постоянный
    Битрейт : 192 Кбит/сек
    Каналы : 2 канала
    Расположение каналов : Front: L R
    Частота : 48,0 КГц
    Битовая глубина : 16 бит
    Метод сжатия : С потерями
    Размер потока : 122 Мбайт (8%)
    Язык : Russian
    Default : Да
    Forced : Нет

    Аудио #2
    Идентификатор : 4
    Формат : AC-3
    Формат/Информация : Audio Coding 3
    Расширение режима : CM (complete main)
    Параметр Endianness формата : Big
    Идентификатор кодека : A_AC3
    Продолжительность : 1 ч. 29 м.
    Вид битрейта : Постоянный
    Битрейт : 192 Кбит/сек
    Каналы : 2 канала
    Расположение каналов : Front: L R
    Частота : 48,0 КГц
    Битовая глубина : 16 бит
    Метод сжатия : С потерями
    Размер потока : 122 Мбайт (8%)
    Язык : English
    Default : Да
    Forced : Нет

    Текст
    Идентификатор : 3
    Формат : UTF-8
    Идентификатор кодека : S_TEXT/UTF8
    Идентификатор кодека/Информация : UTF-8 Plain Text
    Язык : English
    Default : Да
    Forced : Нет

    Размер скачиваемого торрента: 1.48 GB (1584998246 Bytes)

    Челленджер / The Challenger (2013) BDRip-AVC | P скачать через торрент бесплатно
    загрузка...
    Рейтинг →
     (голосов: 1, оценка 4/5, голосовать можно 1 раз )

    Другие торренты по теме:

  • Челленджер / The Challenger (2013) BDRip 720p от CINEMANIA | P


    • Комментарии (0):

      Информация

      Информация

        Посетители, находящиеся в группе Гости, не могут оставлять комментарии в данной новости.

        ↓ Меню



        ↓ Опрос

        А Вы добавили сайт в закладки?
        Да
        Не


        Top 10 за месяц (Фильмы)