.
Авторизация | Регистрация
Хочешь лучшие торренты? Добавь свой email!
Добавить
» » Арне Даль / Группа Альфа / Arne Dahl SE (2011-2012) BDRip 720p от HDClub скачать торрент бесплатно




    Арне Даль / Группа Альфа / Arne Dahl SE (2011-2012) BDRip 720p от HDClub скачать торрент бесплатно

    Опубликовал: Админ | Дата: 27-02-2015, 11:10 | Просмотров: 210



    Детально о кино
    Русское название: Арне Даль / Группа Альфа
    Русское название в мировом прокате: Arne Dahl SE
    Создали в: 2011-2012
    Категория жанра: Детектив, криминал
    Главный режиссер: Харальд Хамрелль, Йорген Бергмарк
    Актеры: Шанти Рони, Матиас Варела, Ирэн Линдх, Клас Лунгмарк, Малин Арвидссон, Магнус Самуэльсон

    Сюжет фильма:
    Season 1, Episode 1: Misterioso - Мистериозо:
    Финансовый мир потрясён рядом жестоких и необъяснимых убийств. Шведский бизнесмен убит в своей гостиной, еще один в кругу близких и есть все признаки того, что убийства будут продолжаться. Департамент расследований создаёт специальная группу с шестью лучшими полицейскими со всей Швеции – группу Альфа.
    Серия фильмов снята по новеллам шведского автора Arne Dahl (ака Jan Arnald).

    Season 1, Episode 2: Ont blod - Дурная кровь:
    Продолжение фильмов о о расследованиях Группы А. На сей раз действие разворачивается в двух странах — Швеции и Америке, где много лет действует неуловимый серийный убийца Киллер из Кентукки. Американские следователи не смогли найти преступника, но теперь в игру вступает Группа А.

    Season 1, Episode 3: Upp till toppen av berget - По пути к вершине / На вершину горы:
    Шведская семья отправляется в Голландию на машине. Внезапно их автомобиль уничтожает сильный взрыв. Мужчина, женщина и маленький ребенок умирают сразу же. Группе А немедленно поручают расследование этого преступления. Мужчина, что погиб при взрыве был полицейским, который тайно работал под прикрытием в ресторане знаменитого шеф-повара Дэвида Биллингера. Знаменитого ресторатора Биллингера, известного тремя своими изысканными ресторанами, полиция подозревает в обороте наркотиков. Режиссер: Йорген Бергмарк

    Дополнительно

    - Запись звука teftel, HPotter.
    - Каждый эпизод состоит из 2-х частей. Всего 5 эпизодов по 2 части, т.е. 10 эпизодов.
    - Во 2-й части 3го эпизода есть две непереведенные фразы, на них форсированные сабы.
    Список серий

    01: Misterioso. Part 1 - Мистериозо
    01: Misterioso. Part 2 - Мистериозо
    02: Ont blod. Part 1 - Дурная кровь
    02: Ont blod. Part 2 - Дурная кровь
    03: Upp till toppen av berget. Part 1 - По пути к вершине / На вершину горы
    03: Upp till toppen av berget. Part 2 - По пути к вершине / На вершину горы
    04: De st?rsta vatten. Part 1 - Большие воды
    04: De st?rsta vatten. Part 2 - Большие воды
    05: Europa Blues. Part 1 - Европейский блюз
    05: Europa Blues. Part 2 - Европейский блюз
    MediaInfo

    General
    Unique ID : 218349382778118800292596914225255531123 (0xA4448FBC0B73D226A449DC04ADCBC273)
    Complete name : Arne.Dahl.SE.S01.2011-2012.720p.BDRip.Rus.Swe.HDCLUBArne.Dahl.SE.S01E01.Misterioso.Part.1.2011.720p.BDRip.Rus.Swe.HDCLUB.mkv
    Format : Matroska
    Format version : Version 4 / Version 2
    File size : 3.95 GiB
    Duration : 1h 28mn
    Overall bit rate : 6 383 Kbps
    Encoded date : UTC 2014-04-07 17:41:34
    Writing application : mkvmerge v6.8.0 (;Theme for Great Cities;) 64bit built on Mar 2 2014 21:34:26
    Writing library : libebml v1.3.0 + libmatroska v1.4.1

    Video
    ID : 1
    Format : AVC
    Format/Info : Advanced Video Codec
    Format profile : High@L3.1
    Format settings, CABAC : Yes
    Format settings, ReFrames : 5 frames
    Codec ID : V_MPEG4/ISO/AVC
    Duration : 1h 28mn
    Bit rate : 5 548 Kbps
    Width : 1 280 pixels
    Height : 720 pixels
    Display aspect ratio : 16:9
    Frame rate mode : Constant
    Frame rate : 25.000 fps
    Color space : YUV
    Chroma subsampling : 4:2:0
    Bit depth : 8 bits
    Scan type : Progressive
    Bits/(Pixel*Frame) : 0.241
    Stream size : 3.36 GiB (85%)
    Title : Arne Dahl. Season 01 Episode 01 Misterioso. Part 1 SE
    Writing library : x264 core 120 r2120 0c7dab9
    Encoding settings : cabac=1 / ref=5 / deblock=1:0:0 / analyse=0x3:0x133 / me=umh / subme=7 / psy=1 / psy_rd=1.00:0.00 / mixed_ref=1 / me_range=16 / chroma_me=1 / trellis=1 / 8x8dct=1 / cqm=0 / deadzone=21,11 / fast_pskip=0 / chroma_qp_offset=-2 / threads=6 / sliced_threads=0 / nr=0 / decimate=1 / interlaced=0 / bluray_compat=0 / constrained_intra=0 / bframes=3 / b_pyramid=2 / b_adapt=2 / b_bias=0 / direct=3 / weightb=1 / open_gop=0 / weightp=2 / keyint=250 / keyint_min=25 / scenecut=40 / intra_refresh=0 / rc_lookahead=50 / rc=2pass / mbtree=1 / bitrate=5548 / ratetol=1.0 / qcomp=0.60 / qpmin=0 / qpmax=69 / qpstep=4 / cplxblur=20.0 / qblur=0.5 / ip_ratio=1.40 / aq=1:1.00
    Language : Swedish
    Default : Yes
    Forced : No

    Audio #1
    ID : 2
    Format : AC-3
    Format/Info : Audio Coding 3
    Mode extension : CM (complete main)
    Format settings, Endianness : Big
    Codec ID : A_AC3
    Duration : 1h 28mn
    Bit rate mode : Constant
    Bit rate : 192 Kbps
    Channel(s) : 2 channels
    Channel positions : Front: L R
    Sampling rate : 48.0 KHz
    Bit depth : 16 bits
    Compression mode : Lossy
    Stream size : 122 MiB (3%)
    Title : AC3 2.0 @ 192 kbps - Русский Репортаж, 100ТВ
    Language : Russian
    Default : Yes
    Forced : No

    Audio #2
    ID : 3
    Format : AC-3
    Format/Info : Audio Coding 3
    Mode extension : CM (complete main)
    Format settings, Endianness : Big
    Codec ID : A_AC3
    Duration : 1h 28mn
    Bit rate mode : Constant
    Bit rate : 640 Kbps
    Channel(s) : 6 channels
    Channel positions : Front: L C R, Side: L R, LFE
    Sampling rate : 48.0 KHz
    Bit depth : 16 bits
    Compression mode : Lossy
    Stream size : 406 MiB (10%)
    Title : AC3 5.1 @ 640 Kbps
    Language : Swedish
    Default : No
    Forced : No

    Text
    ID : 4
    Format : UTF-8
    Codec ID : S_TEXT/UTF8
    Codec ID/Info : UTF-8 Plain Text
    Language : English
    Default : No
    Forced : No




    Снималось в: Швеция
    Время просмотра: ~ 01:29:00
    Перевод текста: Профессиональный (многоголосый закадровый) Русский репортаж, 100ТВ

    Файл
    Кодек для видео: x264
    Качество фильма: BDRip 720p
    Информация о видео: 1280x720 at 25 fps, x264@L4.1, crf, ~5548 kbps avg
    Информация о звуке:
    Аудио 1: Russian: 48 kHz, AC3, 2/0 (L,R) ch, ~192.00 kbps avg |Многоголосый закадровый, Русский репортаж, 100
    Аудио 2: Swedish: 48 kHz, AC3, 3/2 (L,C,R,l,r) + LFE ch, ~640.00 kbps avg
    Субтитры: Русские (Forced - e03p2), английские

    Скриншоты для ознакомления


    Релиз подготовил: by HPotter
    Размер скачиваемого торрента: 39.52 GB (42436527220 Bytes)

    Арне Даль / Группа Альфа / Arne Dahl SE (2011-2012) BDRip 720p от HDClub торрент скачать бесплатно
    загрузка...
    Рейтинг →
     (голосов: 1, оценка 3/5, голосовать можно 1 раз )

    Другие торренты по теме:



      Комментарии (0):

      Информация

      Информация

        Посетители, находящиеся в группе Гости, не могут оставлять комментарии в данной новости.

        ↓ Меню



        ↓ Опрос

        А Вы добавили сайт в закладки?
        Да
        Не


        Top 10 за месяц (Фильмы)