.
Авторизация | Регистрация
Хочешь лучшие торренты? Добавь свой email!
Добавить
» » За сигаретами / Elle sen va / On My Way (2013) WEB-DL 720p от CINEMANIA | P скачать торрент бесплатно




    За сигаретами / Elle sen va / On My Way (2013) WEB-DL 720p от CINEMANIA | P скачать торрент бесплатно

    Опубликовал: Админ | Дата: 27-02-2015, 11:10 | Просмотров: 159



    Детально о кино
    Русское название: За сигаретами
    Русское название в мировом прокате: Elle s;en va / On My Way
    Создали в: 2013
    Категория жанра: комедия, драма
    Главный режиссер: Эмманюэль Берко
    Актеры: Катрин Денёв, Немо Шиффман, Жерар Гаруст, Камилль, Клоди Жансак, Поль Ами, Милен Демонжо, Хафсия Херци, Эвелин Леклерк, Валери Лагранж

    Сюжет фильма:
    У женщины по имени Бэтти в жизни начались одни сплошные неприятности: ее бросает любимый мужчина, а маленький ресторанчик оказывается на грани банкротства. Но несмотря на все проблемы, она не собирается впадать в отчаяние. Бэтти решает, что первым делом ей необходимо перекурить и хорошенько подумать над тем, что же делать дальше. Она замечает, что у нее закончились сигареты и решает отправиться на машине в соседний бар, чтобы купить новую пачку. Так начинается ее незабываемое приключение, в котором ей предстоит преодолеть на своем стареньком автомобиле пол Франции. И кто знает, может именно это путешествие станет дорогой к настоящему счастью?..



    Снималось в: Франция
    Время просмотра: 01:48:21
    Тип перевода: Профессиональное (многоголосое) online movies

    Файл
    Тип видео: MKV
    Качество фильма: WEB-DL 720p
    Информация о видео: 3111 kb/s, 1280x688
    Информация о звуке: Russian / French: AC3, 192 kb/s (2 ch)
    Размер скачиваемого торрента: 2.18 Gb
    Скачать: Сэмпл

    Релиз группы:



    NFO
    Общее
    On.My.Way.2013.WED-DL.720p.CINEMANIA.mkv
    Формат : Matroska
    Версия формата : Version 4 / Version 2
    Размер файла : 2,18 Гбайт
    Продолжительность : 1 ч. 48 м.
    Общий поток : 2878 Кбит/сек
    Название фильма : Release Group CINEMANIA
    Дата кодирования : UTC 2014-04-29 08:08:20
    Программа кодирования : mkvmerge v6.9.1 (;Blue Panther;) 64bit built on Apr 18 2014 18:23:38
    Библиотека кодирования : libebml v1.3.0 + libmatroska v1.4.1

    Видео
    Идентификатор : 1
    Формат : AVC
    Формат/Информация : Advanced Video Codec
    Профиль формата : High@L4.0
    Параметр CABAC формата : Да
    Параметр ReFrames формата : 3 кадра
    Идентификатор кодека : V_MPEG4/ISO/AVC
    Битрейт : 3111 Кбит/сек
    Ширина : 1280 пикселей
    Высота : 688 пикселей
    Соотношение сторон : 1,85:1
    Режим частоты кадров : Переменный
    Цветовое пространство : YUV
    Субдискретизация насыщенности : 4:2:0
    Битовая глубина : 8 бит
    Тип развёртки : Прогрессивная
    Заголовок : Release Group CINEMANIA
    Язык : Russian
    Default : Да
    Forced : Нет

    Аудио #1
    Идентификатор : 2
    Формат : AC-3
    Формат/Информация : Audio Coding 3
    Расширение режима : CM (complete main)
    Параметр Endianness формата : Big
    Идентификатор кодека : A_AC3
    Продолжительность : 1 ч. 48 м.
    Вид битрейта : Постоянный
    Битрейт : 192 Кбит/сек
    Каналы : 2 канала
    Расположение каналов : Front: L R
    Частота : 48,0 КГц
    Битовая глубина : 16 бит
    Метод сжатия : С потерями
    Размер потока : 149 Мбайт (7%)
    Заголовок : online movies
    Язык : Russian
    Default : Да
    Forced : Да

    Аудио #2
    Идентификатор : 3
    Формат : AC-3
    Формат/Информация : Audio Coding 3
    Расширение режима : CM (complete main)
    Параметр Endianness формата : Big
    Идентификатор кодека : A_AC3
    Продолжительность : 1 ч. 48 м.
    Вид битрейта : Постоянный
    Битрейт : 192 Кбит/сек
    Каналы : 2 канала
    Расположение каналов : Front: L R
    Частота : 44,1 КГц
    Битовая глубина : 16 бит
    Метод сжатия : С потерями
    Размер потока : 149 Мбайт (7%)
    Язык : French
    Default : Нет
    Forced : Нет

    Залил: DGEKIGAN
    Размер скачиваемого торрента: 2.18 GB (2339723848 Bytes)

    За сигаретами / Elle sen va / On My Way (2013) WEB-DL 720p от CINEMANIA | P торрент скачать бесплатно
    загрузка...
    Рейтинг →
     (голосов: 1, оценка 4/5, голосовать можно 1 раз )

    Другие торренты по теме:

  • За сигаретами / Elle sen va / On my way (2013) Blu-ray Remux 1080p от MediaClub | P


    • Комментарии (0):

      Информация

      Информация

        Посетители, находящиеся в группе Гости, не могут оставлять комментарии в данной новости.

        ↓ Меню



        ↓ Опрос

        А Вы добавили сайт в закладки?
        Да
        Не


        Top 10 за месяц (Фильмы)