.
Авторизация | Регистрация
Хочешь лучшие торренты? Добавь свой email!
Добавить
» » Напролом / The Hard Way (1991) DVDRip от New-Team | P скачать торрент бесплатно




    Напролом / The Hard Way (1991) DVDRip от New-Team | P скачать торрент бесплатно

    Опубликовал: Админ | Дата: 27-02-2015, 11:10 | Просмотров: 204


    Снималось в: США
    Создали в: The Badham-Cohen Group, Universal Pictures

    Категория жанра: боевик, комедия, криминал
    Создали в: 1991
    Время просмотра: 01:50:44

    Перевод текста: Профессиональный (многоголосый, закадровый) СТС
    Оригинальная аудиодорожка: нет
    Субтитры подготовлены: нет

    Главный режиссер: Джон Бэдэм / John Badham

    Актеры:
    Майкл Дж. Фокс, Джеймс Вудс, Стивен Лэнг, Аннабелла Шиорра, Джон Каподиче, Луис Гузман, LL Кул Джей, Мэри Мара, Делрой Линдо, Конрад Робертс...

    Сюжет:
    Ник Лэнг — знаменитая голливудская звезда. У Ника есть лишь одна мечта: расстаться со своим имиджем славного парня и сыграть настоящего крутого героя. И тут, как раз кстати, возникает возможность исполнить роль отважного детектива. Чтобы как можно лучше узнать о своем новом персонаже, Лэнг отправляется в Нью-Йорк, где знакомится с бывалым сыщиком Джоном Моссом, который должен помочь ему освоить полицейские приемы. Странная парочка отправляется на поиски самого настоящего серийного убийцы, терроризирующего весь город…



    Исходник: DVD5
    Тип релиза: DVDRip
    Контейнер: AVI

    Информация о видео: 704x288 (2.40:1), 23.976 fps, XviD ~ 805 kbps avg, 0.165 bit/pixel
    Информация о звуке: 48 kHz, MP3 2.0, 128 kbps

    Раздача от:
    MediaInfo

    Общее
    Полное имя : Naprolom.1991.DVDRip-745_New-team_by_AVP_Studio.avi
    Формат : AVI
    Формат/Информация : Audio Video Interleave
    Размер файла : 746 Мбайт
    Продолжительность : 1 ч. 50 м.
    Общий поток : 942 Кбит/сек
    Программа кодирования : VirtualDubModRus 1.5.10.2 (build 2542/release)
    Библиотека кодирования : VirtualDubMod build 2542/release

    Видео
    Идентификатор : 0
    Формат : MPEG-4 Visual
    Профиль формата : Advanced Simple@L5
    Параметр BVOP формата : 1
    Параметр QPel формата : Нет
    Параметр GMC формата : Без точки перехода
    Параметр матрицы формата : Выборочная
    Идентификатор кодека : XVID
    Идентификатор кодека/Подсказка : XviD
    Продолжительность : 1 ч. 50 м.
    Битрейт : 805 Кбит/сек
    Ширина : 704 пикселя
    Высота : 288 пикселей
    Соотношение сторон : 2,40:1
    Частота кадров : 23,976 кадра/сек
    Цветовое пространство : YUV
    Субдискретизация насыщенности : 4:2:0
    Битовая глубина : 8 бит
    Тип развёртки : Прогрессивная
    Метод сжатия : С потерями
    Бит/(Пиксели*Кадры) : 0.165
    Размер потока : 637 Мбайт (85%)
    Библиотека кодирования : XviD 73

    Аудио
    Идентификатор : 1
    Формат : MPEG Audio
    Версия формата : Version 1
    Профиль формата : Layer 3
    Идентификатор кодека : 55
    Идентификатор кодека/Подсказка : MP3
    Продолжительность : 1 ч. 50 м.
    Вид битрейта : Постоянный
    Битрейт : 128 Кбит/сек
    Каналы : 2 канала
    Частота : 48,0 КГц
    Метод сжатия : С потерями
    Размер потока : 101 Мбайт (14%)
    Выравнивание : Соединение по промежуткам
    Продолжительность промежутка : 42 мс. (1,00 видеокадр)
    Время предзагрузки промежутка : 504 мс.
    Библиотека кодирования : LAME3.99r
    Залил: AVPStudio
    Размер скачиваемого торрента: 745.96 MB (782190592 Bytes)


    Напролом / The Hard Way (1991) DVDRip от New-Team | P торрент скачать бесплатно
    загрузка...
    Рейтинг →
     (голосов: 1, оценка 4/5, голосовать можно 1 раз )

    Другие торренты по теме:

  • Напролом / Lockout (2012) HDRip-AVC | Расширенная версия
  • Напролом / Lockout (2012) BDRip-AVC от HELLYWOOD | Расширенная версия скачать через торрент бесплатно
  • Напролом / The Hard Way (1991) DVDRip | P, P2, A
  • Напролом / The Hard Way (1991) DVDRip-AVC от New-Team | P
  • Напролом / The Hard Way (1991) DVD5 | P, P2, A
  • Напролом / Lockout (Unrated) 2012 BDRip-AVC от MediaClub | D, A скачать через торрент бесплатно
  • Напролом / Lockout (2012) HDRip-AVC | D
  • Напролом / Lockout (2012) BDRip 720p от NNNB | Расширенная версия | 60 fps


    • Комментарии (0):

      Информация

      Информация

        Посетители, находящиеся в группе Гости, не могут оставлять комментарии в данной новости.

        ↓ Меню



        ↓ Опрос

        А Вы добавили сайт в закладки?
        Да
        Не


        Top 10 за месяц (Фильмы)