.
Авторизация | Регистрация
Хочешь лучшие торренты? Добавь свой email!
Добавить




Джо / Joe (2013) WEB-DLRip скачать торрент бесплатно

Опубликовал: Админ | Дата: 27-02-2015, 11:10 | Просмотров: 201


Создали в: 2013
Создали в: США / Dreambridge Films, Muskat Filmed Properties LLC, Rough House (I), Worldview Entertainment
Категория жанра: Драма, Криминал
Перевод текста: Двухголосый закадровый, любительский (Пиратская студия)
Субтитры: Отсутствуют
Главный режиссер: Дэвид Гордон Грин
Продюсер: Дэвид Гордон Грин, Лиза Мускат, Деррик Тсенг
Актеры: Ронни Джин Блевинс, Сью Рок, Брайан Мейс, Гари Поултер, Тай Шеридан, Николас Кейдж, Адриэн Мишлер, Хезер Кафка, Бренда Исаак Бут, Адж Уилсон МакФол

Сюжет:
В сонном городке на Миссисипи встретилось два одиноких человека. Юный Гарри поставил крест на своем будущем, не зная как отвязаться от отца-алкоголика, бывший бандит Джо не желает вспоминать о прошлом. Неожиданно для самих себя они становятся друзьями.

Время просмотра: 01:57:45
Качество фильма видео: WEB-DLRip

Информация о видеокодек: Xvid
Битрейт видео: ~700 Kbit/s
Размер скачиваемого торрента кадра: 640 x 272
Информация о звукекодек: MP3 2.0
Битрейт аудио: 128 Kbit/s
MediaInfo
Общее
Полное имя : E:РазноеДжо.2013.WEB-DLRip.700MB.avi
Формат : AVI
Формат/Информация : Audio Video Interleave
Размер файла : 705 Мбайт
Продолжительность : 1 ч. 57 м.
Общий поток : 837 Кбит/сек
Программа кодирования : VirtualDubMod 1.5.10.3 (build 2550/release)
Библиотека кодирования : VirtualDubMod build 2550/release

Видео
Идентификатор : 0
Формат : MPEG-4 Visual
Профиль формата : Advanced Simple@L5
Параметр BVOP формата : 2
Параметр QPel формата : Нет
Параметр GMC формата : Без точки перехода
Параметр матрицы формата : Default (MPEG)
Идентификатор кодека : XVID
Идентификатор кодека/Подсказка : XviD
Продолжительность : 1 ч. 57 м.
Битрейт : 700 Кбит/сек
Ширина : 640 пикс.
Высота : 272 пикс.
Соотношение сторон : 2,35:1
Частота кадров : 23,976 кадр/сек
Цветовое пространство : YUV
Подвыборка цветности : 4:2:0
Битовая глубина : 8 бит
Тип развёртки : Прогрессивная
Метод сжатия : С потерями
Бит/(Пиксели*Кадры) : 0.168
Размер потока : 589 Мбайт (84%)
Библиотека кодирования : XviD 73

Аудио
Идентификатор : 1
Формат : MPEG Audio
Версия формата : Version 1
Профиль формата : Layer 3
Идентификатор кодека : 55
Идентификатор кодека/Подсказка : MP3
Продолжительность : 1 ч. 57 м.
Вид битрейта : Постоянный
Битрейт : 128 Кбит/сек
Каналы : 2 канала
Частота : 48,0 КГц
Метод сжатия : С потерями
Размер потока : 108 Мбайт (15%)
Выравнивание : Соединение по промежуткам
Продолжительность промежутка : 42 мс. (1,00 видеокадр)
Время предзагрузки промежутка : 504 ms
Библиотека кодирования : LAME3.99r
Залил: vadys
Размер скачиваемого торрента: 705.04 MB (739282944 Bytes)


Джо / Joe (2013) WEB-DLRip торрент скачать бесплатно
загрузка...
Рейтинг →
 (голосов: 1, оценка 4/5, голосовать можно 1 раз )

Другие торренты по теме:

  • Киллер Джо / Killer Joe (2011) BDRip-AVC | iPad
  • Могучий Джо Янг / Mighty Joe Young (1998) DVDRip
  • Лимонадный Джо / Limondov Joe aneb Konsk opera (1964) BDRip 720p
  • Лимонадный Джо - Стой, кто идёт (1990) FLAC
  • Знакомьтесь, Джо Блэк / Meet Joe BlackMeet Joe Black (1998) BDRip 720p
  • Джо Витале - Пробуждение сознания. 4 шага к жизни, о которой вы мечтаете (2011) PDF
  • Красавчик Джо / Beautiful Joe (2000) DVDRip от 0ptimus | P2, A
  • Джо Кидд / Joe Kidd (1972) DVDRip | Р


    • Комментарии (0):

      Информация

      Информация

        Посетители, находящиеся в группе Гости, не могут оставлять комментарии в данной новости.

        ↓ Меню



        ↓ Опрос

        А Вы добавили сайт в закладки?
        Да
        Не


        Top 10 за месяц (Фильмы)