.
Авторизация | Регистрация
Хочешь лучшие торренты? Добавь свой email!
Добавить
» » Она / Her (2013) BDRemux 1080p от NovaLan скачать через торрент бесплатно




    Она / Her (2013) BDRemux 1080p от NovaLan скачать через торрент бесплатно

    Опубликовал: Админ | Дата: 27-02-2015, 11:10 | Просмотров: 194



    Русское название: Она
    Русское название в мировом прокате: Her
    Создали в: 2013
    Категория жанра: Мелодрама, драма, фантастика
    Главный режиссер: Спайк Джонс
    Актеры: Хоакин Феникс, Эми Адамс, Руни Мара, Оливия Уайлд, Скарлетт Йоханссон, Линн А. Фридман, Лиза Рени Питтс, Гейб Гомез, Крис Прэтт, Артт Батлер, Мэй Линдстрём, Билл Хейдер, Кристен Уиг, Брайан Джонсон, Мэтт Летчер, Спайк Джонс
    Сюжет фильма:
    Теодор - одинокий писатель, покупает новую техническую разработку — операционную систему, призванную исполнять любое желание пользователя. К удивлению Теодора, вскоре между ним и операционной системой возникает роман.


    Снималось в: США, Annapurna Pictures
    Время просмотра: 02:05:50
    Перевод текста: Профессиональный многоголосый (Гараж Дубляж) / Авторский одноголосый (Алексей Матвеев)

    Кодек для видео: H.264
    Качество фильма: Blu-Ray Remux 1080p
    Информация о видео: MPEG-4 AVC, 24523 Кбит/с, 1920x1080, 23.976 кадр/с
    Информация о звуке: Русский (DTS, 6 ch, 1509 Кбит/с), английский (DTS-HD MA, 6 ch, 3189 Кбит/с)
    Субтитры: Русские, английские

    Инфо-файл

    Полное имя : D:Раздачи_DHer.2013.BDRemux.1080p.NovaLan.mkv
    Формат : Matroska
    Версия формата : Version 4 / Version 2
    Размер файла : 27,0 Гбайт
    Продолжительность : 2 ч. 5 м.
    Режим общего битрейта : Переменный
    Общий поток : 30,7 Мбит/сек
    Название фильма : Her 2013 - NovaLan
    Дата кодирования : UTC 2014-04-28 08:53:34
    Программа кодирования : mkvmerge v6.9.1 (;Blue Panther;) 64bit built on Apr 18 2014 18:23:38
    Библиотека кодирования : libebml v1.3.0 + libmatroska v1.4.1

    Видео
    Идентификатор : 1
    Формат : AVC
    Формат/Информация : Advanced Video Codec
    Профиль формата : High@L4.1
    Параметр CABAC формата : Да
    Параметр ReFrames формата : 2 кадра
    Параметр GOP формата : M=1, N=10
    Идентификатор кодека : V_MPEG4/ISO/AVC
    Продолжительность : 2 ч. 5 м.
    Вид битрейта : Переменный
    Битрейт : 25,5 Мбит/сек
    Ширина : 1920 пикселей
    Высота : 1080 пикселей
    Соотношение сторон : 16:9
    Частота кадров : 23,976 кадра/сек
    Цветовое пространство : YUV
    Субдискретизация насыщенности : 4:2:0
    Битовая глубина : 8 бит
    Тип развёртки : Прогрессивная
    Бит/(Пиксели*Кадры) : 0.514
    Размер потока : 22,5 Гбайт (83%)
    Заголовок : Her 2013 - NovaLan
    Default : Да
    Forced : Нет

    Аудио #1
    Идентификатор : 2
    Формат : DTS
    Формат/Информация : Digital Theater Systems
    Идентификатор кодека : A_DTS
    Продолжительность : 2 ч. 5 м.
    Вид битрейта : Постоянный
    Битрейт : 1510 Кбит/сек
    Каналы : 6 каналов
    Расположение каналов : Front: L C R, Side: L R, LFE
    Частота : 48,0 КГц
    Битовая глубина : 24 бит
    Метод сжатия : С потерями
    Размер потока : 1,33 Гбайт (5%)
    Язык : Russian
    Default : Да
    Forced : Нет

    Аудио #2
    Идентификатор : 3
    Формат : DTS
    Формат/Информация : Digital Theater Systems
    Идентификатор кодека : A_DTS
    Продолжительность : 2 ч. 5 м.
    Вид битрейта : Постоянный
    Битрейт : 1510 Кбит/сек
    Каналы : 6 каналов
    Расположение каналов : Front: L C R, Side: L R, LFE
    Частота : 48,0 КГц
    Битовая глубина : 24 бит
    Метод сжатия : С потерями
    Размер потока : 1,33 Гбайт (5%)
    Язык : Russian
    Default : Нет
    Forced : Нет

    Аудио #3
    Идентификатор : 4
    Формат : DTS
    Формат/Информация : Digital Theater Systems
    Профиль формата : MA / Core
    Идентификатор кодека : A_DTS
    Продолжительность : 2 ч. 5 м.
    Вид битрейта : Переменный
    Битрейт : 1561 Кбит/сек / 1510 Кбит/сек
    Каналы : 6 каналов
    Расположение каналов : Front: L C R, Side: L R, LFE
    Частота : 48,0 КГц
    Битовая глубина : 24 бит
    Метод сжатия : Без потерь / Lossy
    Язык : English
    Default : Нет
    Forced : Нет

    Текст #1
    Идентификатор : 5
    Формат : UTF-8
    Идентификатор кодека : S_TEXT/UTF8
    Идентификатор кодека/Информация : UTF-8 Plain Text
    Язык : Russian
    Default : Да
    Forced : Да

    Текст #2
    Идентификатор : 6
    Формат : UTF-8
    Идентификатор кодека : S_TEXT/UTF8
    Идентификатор кодека/Информация : UTF-8 Plain Text
    Язык : English
    Default : Нет
    Forced : Нет

    Меню
    00:00:00.000 : en:Chapter 1
    00:10:02.560 : en:Chapter 2
    00:19:10.107 : en:Chapter 3
    00:32:12.680 : en:Chapter 4
    00:40:40.146 : en:Chapter 5
    00:52:38.196 : en:Chapter 6
    01:03:11.454 : en:Chapter 7
    01:12:45.027 : en:Chapter 8
    01:20:36.873 : en:Chapter 9
    01:30:02.105 : en:Chapter 10
    01:41:40.010 : en:Chapter 11
    01:50:33.293 : en:Chapter 12
    01:57:32.670 : en:Chapter 13
    02:05:50.167 : en:Chapter 14



    Релиз группа NovaLan
    Автор сборки Sergei7721






    Релиз подготовил:


    Залил: Sergei7721
    Размер скачиваемого торрента: 27.02 GB (29007946898 Bytes)

    Она / Her (2013) BDRemux 1080p от NovaLan скачать через торрент бесплатно
    загрузка...
    Рейтинг →
     (голосов: 1, оценка 5/5, голосовать можно 1 раз )

    Другие торренты по теме:

  • Она больше не говорит, она стреляет / Elle cause plus, elle flingue (1972) DVDRip от Brazzass
  • Она не только болтает, она всех мочит / Elle cause plus, elle flingue (1972) DVDRip-AVC от -=HD-NET=-
  • Она не пьет, не курит, не клеит парней, но она... болтает! / Elle boit pas... (1969) DVDRip | L1 скачать через торрент бесплатно
  • Она не пьет, не курит, не клеит парней, но она... болтает! / Elle boit pas, elle fume pas, elle drague pas, mais... elle cause! (1969) DVDRip-AVC | L1
  • Она защищает Родину (Она сражалась за родину) / 1943 / РУ / DVDRip
  • Он и Она / Him Her (2012) HDTVRip
  • Она и Её Кот / She and Her Cat / She and Her Cat / Kanojo to Kanojo no neko (1999) BDRip от Мифоград | L2
  • А.Ч. Бхактиведанта Свами Прабхупада - Бхагавад-гита как она есть (2005) MP3, PDF


    • Комментарии (0):

      Информация

      Информация

        Посетители, находящиеся в группе Гости, не могут оставлять комментарии в данной новости.

        ↓ Меню



        ↓ Опрос

        А Вы добавили сайт в закладки?
        Да
        Не


        Top 10 за месяц (Фильмы)