.
Авторизация | Регистрация
Хочешь лучшие торренты? Добавь свой email!
Добавить
» » Она / Her (2013) BDRip 720p | L, A скачать через торрент бесплатно




    Она / Her (2013) BDRip 720p | L, A скачать через торрент бесплатно

    Опубликовал: Админ | Дата: 27-02-2015, 11:10 | Просмотров: 216



    Детально о кино
    Русское название: Она
    Русское название в мировом прокате: Her
    Создали в: 2013
    Категория жанра: Мелодрама, драма, фантастика
    Главный режиссер: Спайк Джонс
    Актеры: Хоакин Феникс, Эми Адамс, Руни Мара, Оливия Уайлд, Скарлетт Йоханссон, Линн А. Фридман, Лиза Рени Питтс, Гейб Гомез, Крис Прэтт, Артт Батлер, Мэй Линдстрём, Билл Хейдер, Кристен Уиг, Брайан Джонсон, Мэтт Летчер, Спайк Джонс

    Сюжет фильма: Теодор - одинокий писатель, покупает новую техническую разработку — операционную систему, призванную исполнять любое желание пользователя. К удивлению Теодора, вскоре между ним и операционной системой возникает роман.



    Снималось в: США, Annapurna Pictures
    Время просмотра: 02:05:50
    Перевод текста: Любительский (многоголосый, закадровый) - Гараж Дубляж; Авторский (одноголосый, закадровый) - А. Матвеев

    Файл
    Качество фильма: BDRip 720p
    Информация о видео: MPEG-4/AVC, 1280x690 (1.85:1), 5108 Кбит/сек, 23.976 кадр/сек
    Информация о звуке 1: AC3, 6 каналов, 640 Кбит/сек | Гараж Дубляж
    Информация о звуке 2: AC3, 6 каналов, 640 Кбит/сек | А. Матвеев
    Информация о звуке 3: AC3, 6 каналов, 640 Кбит/сек | Английский
    Субтитры: Английские
    Навигация но главам: Есть
    Информация о видеоряд: PHD

    Доп. информация:
    За русские аудио дорожки DTS Гараж Дубляж и А. Матвеев спасибо

    MediaInfo:
    Общее
    Уникальный идентификатор : 176698373845341267172262398215150657079 (0x84EEDE7248914608A933B40178D05E37)
    Полное имя : Her. (2013) BDRip 720p.mkv
    Формат : Matroska
    Версия формата : Version 2
    Размер файла : 6,30 Гбайт
    Продолжительность : 2 ч. 5 м.
    Общий поток : 7171 Кбит/сек
    Название фильма : Her
    Дата кодирования : UTC 2014-04-28 10:03:39
    Программа кодирования : mkvmerge v5.8.0 (;No Sleep / Pillow;) built on Sep 2 2012 15:37:04
    Библиотека кодирования : libebml v1.2.3 + libmatroska v1.3.0

    Видео
    Идентификатор : 1
    Формат : AVC
    Формат/Информация : Advanced Video Codec
    Профиль формата : High@L4.1
    Параметр CABAC формата : Да
    Параметр ReFrames формата : 9 кадров
    Идентификатор кодека : V_MPEG4/ISO/AVC
    Продолжительность : 2 ч. 5 м.
    Битрейт : 5108 Кбит/сек
    Ширина : 1280 пикселей
    Высота : 690 пикселей
    Соотношение сторон : 1,85:1
    Режим частоты кадров : Постоянный
    Частота кадров : 23,976 кадра/сек
    Цветовое пространство : YUV
    Субдискретизация насыщенности : 4:2:0
    Битовая глубина : 8 бит
    Тип развёртки : Прогрессивная
    Бит/(Пиксели*Кадры) : 0.241
    Размер потока : 4,49 Гбайт (71%)
    Язык : English
    Default : Да
    Forced : Нет

    Аудио #1
    Идентификатор : 2
    Формат : AC-3
    Формат/Информация : Audio Coding 3
    Расширение режима : CM (complete main)
    Параметр Endianness формата : Big
    Идентификатор кодека : A_AC3
    Продолжительность : 2 ч. 5 м.
    Вид битрейта : Постоянный
    Битрейт : 640 Кбит/сек
    Каналы : 6 каналов
    Расположение каналов : Front: L C R, Side: L R, LFE
    Частота : 48,0 КГц
    Битовая глубина : 16 бит
    Метод сжатия : С потерями
    Размер потока : 576 Мбайт (9%)
    Заголовок : P | Гараж Дубляж
    Язык : Russian
    Default : Да
    Forced : Нет

    Аудио #2
    Идентификатор : 3
    Формат : AC-3
    Формат/Информация : Audio Coding 3
    Расширение режима : CM (complete main)
    Параметр Endianness формата : Big
    Идентификатор кодека : A_AC3
    Продолжительность : 2 ч. 5 м.
    Вид битрейта : Постоянный
    Битрейт : 640 Кбит/сек
    Каналы : 6 каналов
    Расположение каналов : Front: L C R, Side: L R, LFE
    Частота : 48,0 КГц
    Битовая глубина : 16 бит
    Метод сжатия : С потерями
    Размер потока : 576 Мбайт (9%)
    Заголовок : A | А. Матвеев
    Язык : Russian
    Default : Нет
    Forced : Нет

    Аудио #3
    Идентификатор : 4
    Формат : AC-3
    Формат/Информация : Audio Coding 3
    Расширение режима : CM (complete main)
    Параметр Endianness формата : Big
    Идентификатор кодека : A_AC3
    Продолжительность : 2 ч. 5 м.
    Вид битрейта : Постоянный
    Битрейт : 640 Кбит/сек
    Каналы : 6 каналов
    Расположение каналов : Front: L C R, Side: L R, LFE
    Частота : 48,0 КГц
    Битовая глубина : 16 бит
    Метод сжатия : С потерями
    Размер потока : 576 Мбайт (9%)
    Заголовок : Eng
    Язык : English
    Default : Нет
    Forced : Нет

    Текст
    Идентификатор : 5
    Формат : UTF-8
    Идентификатор кодека : S_TEXT/UTF8
    Идентификатор кодека/Информация : UTF-8 Plain Text
    Заголовок : SDH
    Язык : English
    Default : Нет
    Forced : Нет

    Меню
    00:00:00.000 : en:00:00:00.000
    00:10:02.560 : en:00:10:02.560
    00:19:10.107 : en:00:19:10.107
    00:32:12.681 : en:00:32:12.681
    00:40:40.146 : en:00:40:40.146
    00:52:38.197 : en:00:52:38.197
    01:03:11.454 : en:01:03:11.454
    01:12:45.027 : en:01:12:45.027
    01:20:36.874 : en:01:20:36.874
    01:30:02.105 : en:01:30:02.105
    01:41:40.011 : en:01:41:40.011
    01:50:33.293 : en:01:50:33.293
    01:57:32.671 : en:01:57:32.671

    Скриншоты для ознакомления:


    Релиз подготовил:
    Размер скачиваемого торрента: 6.30 GB (6768034544 Bytes)

    Она / Her (2013) BDRip 720p | L, A скачать через торрент бесплатно
    загрузка...
    Рейтинг →
     (голосов: 1, оценка 4/5, голосовать можно 1 раз )

    Другие торренты по теме:

  • Она больше не говорит, она стреляет / Elle cause plus, elle flingue (1972) DVDRip от Brazzass
  • Она не только болтает, она всех мочит / Elle cause plus, elle flingue (1972) DVDRip-AVC от -=HD-NET=-
  • Она не пьет, не курит, не клеит парней, но она... болтает! / Elle boit pas... (1969) DVDRip | L1 скачать через торрент бесплатно
  • Она не пьет, не курит, не клеит парней, но она... болтает! / Elle boit pas, elle fume pas, elle drague pas, mais... elle cause! (1969) DVDRip-AVC | L1
  • Она защищает Родину (Она сражалась за родину) / 1943 / РУ / DVDRip
  • Он и Она / Him Her (2012) HDTVRip
  • Она и Её Кот / She and Her Cat / She and Her Cat / Kanojo to Kanojo no neko (1999) BDRip от Мифоград | L2
  • А.Ч. Бхактиведанта Свами Прабхупада - Бхагавад-гита как она есть (2005) MP3, PDF


    • Комментарии (0):

      Информация

      Информация

        Посетители, находящиеся в группе Гости, не могут оставлять комментарии в данной новости.

        ↓ Меню



        ↓ Опрос

        А Вы добавили сайт в закладки?
        Да
        Не


        Top 10 за месяц (Фильмы)