.
Авторизация | Регистрация
Хочешь лучшие торренты? Добавь свой email!
Добавить
» » Фарго / Fargo (2014) WEB-DLRip от Deadmauvlad | Кубик в Кубе скачать торрент бесплатно




    Фарго / Fargo (2014) WEB-DLRip от Deadmauvlad | Кубик в Кубе скачать торрент бесплатно

    Опубликовал: Админ | Дата: 27-02-2015, 11:10 | Просмотров: 399


    Фарго / Fargo


    Aw jeez, here we go again

    Год выпуска: 2014
    Страна: США
    Жанр: драма, криминал
    Продолжительность: ~ 01:12:13
    Перевод:Профессиональный двухголосый закадровый(Кубик в Кубе)
    Субтитры: русские, английские (внешние, srt)

    Режиссёры: Мэтт Шекман, Скотт Уинант, Адам Бернштейн

    В ролях: Мартин Фриман, Билли Боб Торнтон, Боб Оденкёрк, Джули Энн Эмери, Колин Хэнкс, Джои Кинг, Оливер Платт, Кейт Уолш, Джошуа Клоуз, Спенсер Древер

    Описание: Бродяга по имени Лорн приезжает в небольшой городок в штате Миннесота. Он поражает местное население своей злобой и жестокостью, а также подчиняет себе страхового агента Лестера…




    Качество: WEB-DLRip
    Формат: AVI
    Видео кодек: XvID
    Аудио кодек: MP3
    Видео: 624x336 (1.86:1), 23.976 fps, XviD build 73 ~1200 kbps avg, 0.24 bit/pixel
    Аудио №1: 48 kHz, MPEG Layer 3, 2 ch, ~128.00 kbps avg Кубик в Кубе
    Audio #2: 48 kHz, MPEG Layer 3, 2 ch, ~128.00 kbps avg ENG
    semple.avi


    MI
    Общее
    Полное имя : D:Рипы выкладка DeadmauvladРипы готовыеFargo.S01.WEB-DLRip.Deadmauvlad.Kubik_v_Kube.(Sub_Rus,Eng)Fargo.S01E01.WEB-DLRip.DVO.ENG.Deadmauvlad.avi
    Формат : AVI
    Формат/Информация : Audio Video Interleave
    Размер файла : 760 Мбайт
    Продолжительность : 1 ч. 12 м.
    Общий поток : 1471 Кбит/сек
    Название фильма : Fargo.S01E01.WEB-DLRip.Kubik_v_Kube.ENG.Deadmauvlad
    Режиссёр : Deadmauvlad
    Жанр : драма, криминал
    Программа кодирования : VirtualDubMod 1.5.10.3 | www.virtualdub-fr.org || (build 2550/release)
    Библиотека кодирования : VirtualDubMod build 2550/release
    Формат оригинала/Имя : Сериал
    Правообладатель : Goldenshara
    Примечание : Rus + ENG Sub

    Видео
    Идентификатор : 0
    Формат : MPEG-4 Visual
    Профиль формата : Advanced Simple@L5
    Параметр BVOP формата : 1
    Параметр QPel формата : Нет
    Параметр GMC формата : Без точки перехода
    Параметр матрицы формата : Выборочная
    Идентификатор кодека : XVID
    Идентификатор кодека/Подсказка : XviD
    Продолжительность : 1 ч. 12 м.
    Битрейт : 1201 Кбит/сек
    Ширина : 624 пикселя
    Высота : 336 пикселей
    Соотношение сторон : 1,85:1
    Частота кадров : 23,976 кадра/сек
    Цветовое пространство : YUV
    Субдискретизация насыщенности : 4:2:0
    Битовая глубина : 8 бит
    Тип развёртки : Прогрессивная
    Метод сжатия : С потерями
    Бит/(Пиксели*Кадры) : 0.239
    Размер потока : 621 Мбайт (82%)
    Библиотека кодирования : XviD 73

    Аудио #1
    Идентификатор : 1
    Формат : MPEG Audio
    Версия формата : Version 1
    Профиль формата : Layer 3
    Идентификатор кодека : 55
    Идентификатор кодека/Подсказка : MP3
    Продолжительность : 1 ч. 12 м.
    Вид битрейта : Постоянный
    Битрейт : 128 Кбит/сек
    Каналы : 2 канала
    Частота : 48,0 КГц
    Метод сжатия : С потерями
    Размер потока : 66,1 Мбайт (9%)
    Выравнивание : Соединение по промежуткам
    Продолжительность промежутка : 42 мс. (1,00 видеокадр)
    Время предзагрузки промежутка : 504 мс.
    Библиотека кодирования : LAME3.99r
    Залил: DJ_V.K_TV
    Размер скачиваемого торрента: 1.48 GB (1593100645 Bytes)


    Фарго / Fargo (2014) WEB-DLRip от Deadmauvlad | Кубик в Кубе торрент скачать бесплатно
    загрузка...
    Рейтинг →
     (голосов: 1, оценка 5/5, голосовать можно 1 раз )

    Другие торренты по теме:

  • Фарго / Fargo (1995) BDRip 720p от NoLimits-Team
  • Фарго / Fargo (1996) BDRip -AVC от MediaClub | P, A
  • Фарго / Fargo (1995) HDRip от Scarabey скачать через торрент бесплатно
  • Фарго / Fargo (2014) WEB-DLRip 720p | LostFilm скачать через торрент бесплатно
  • Фарго / Fargo (2014) WEB-DLRip | LostFilm скачать через торрент бесплатно
  • Фарго / Fargo (2014) WEB-DL 1080p | NewStudio скачать через торрент бесплатно
  • Фарго / Fargo (2014) WEB-DLRip | NewStudio скачать через торрент бесплатно
  • Фарго / Fargo (2014) WEB-DLRip от Scarabey | LostFilm скачать через торрент бесплатно


    • Комментарии (0):

      Информация

      Информация

        Посетители, находящиеся в группе Гости, не могут оставлять комментарии в данной новости.

        ↓ Меню



        ↓ Опрос

        А Вы добавили сайт в закладки?
        Да
        Не


        Top 10 за месяц (Фильмы)