.
Авторизация | Регистрация
Хочешь лучшие торренты? Добавь свой email!
Добавить
» » Волчья яма 2 / Wolf Creek 2 (2013) WEB-DL 720p от CINEMANIA | L2 скачать торрент бесплатно




    Волчья яма 2 / Wolf Creek 2 (2013) WEB-DL 720p от CINEMANIA | L2 скачать торрент бесплатно

    Опубликовал: Админ | Дата: 27-02-2015, 11:10 | Просмотров: 224



    Детально о кино
    Русское название: Волчья яма 2
    Русское название в мировом прокате: Wolf Creek 2
    Создали в: 2013
    Категория жанра: ужасы, триллер
    Главный режиссер: Грег МакЛин
    Актеры: Джон Джэррэт, Райан Корр, Шеннон Эшлин, Филлипп Клаус, Герард Кеннеди, Энни Байрон, Шэйн Коннор, Бен Джеррард, Хлоя Борхэм, Райан Кларк

    Сюжет фильма:
    Трое туристов из Европы путешествуют по известным достопримечательностям австралийского континента. В поисках приключений они приезжают к кратеру древнего потухшего вулкана, известному как Волчья Яма. Здесь Рутгеру, Паулю и Катарине предстоит столкнуться с сумасшедшим маньяком Миком Тейлором, чья садистские наклонности уже привели к гибели множество незадачливых туристов...



    Снималось в: Австралия
    Время просмотра: 01:46:14
    Тип перевода: Любительское (двухголосое) DeadSno den904
    перевод на русский язык Северный
    работа со звуком Гуннлауг

    Тип видео: MKV
    Качество фильма: WEB-DL 720p PHD
    Информация о видео: 3867 kb/s, 1280x720
    Информация о звуке: Russian: AC3, 192 kb/s (2 ch) / English: AC3, 384 kb/s (6 ch)
    Субтитры: English
    Дополнительно: Сохранены оригинальные чаптеры как на Blu-Ray
    Размер скачиваемого торрента: 3.11 GB
    Скачать: Сэмпл

    Релиз группы:



    NFO
    Общее
    Wolf.Creek.2.2013.WED-DL.720p.CINEMANIA.mkv
    Формат : Matroska
    Версия формата : Version 4 / Version 2
    Размер файла : 3,29 Гбайт
    Продолжительность : 1 ч. 46 м.
    Общий поток : 4413 Кбит/сек
    Название фильма : Release Group CINEMANIA
    Дата кодирования : UTC 2014-04-27 07:11:54
    Программа кодирования : mkvmerge v6.9.1 (;Blue Panther;) 64bit built on Apr 18 2014 18:23:38
    Библиотека кодирования : libebml v1.3.0 + libmatroska v1.4.1

    Видео
    Идентификатор : 1
    Формат : AVC
    Формат/Информация : Advanced Video Codec
    Профиль формата : Main@L3.1
    Параметр CABAC формата : Нет
    Параметр ReFrames формата : 2 кадра
    Идентификатор кодека : V_MPEG4/ISO/AVC
    Продолжительность : 1 ч. 46 м.
    Битрейт : 3750 Кбит/сек
    Ширина : 1280 пикселей
    Высота : 540 пикселей
    Соотношение сторон : 2,40:1
    Режим частоты кадров : Постоянный
    Частота кадров : 23,976 кадра/сек
    Цветовое пространство : YUV
    Субдискретизация насыщенности : 4:2:0
    Битовая глубина : 8 бит
    Тип развёртки : Прогрессивная
    Бит/(Пиксели*Кадры) : 0.226
    Размер потока : 2,79 Гбайт (85%)
    Заголовок : Release Group CINEMANIA
    Язык : English
    Default : Да
    Forced : Нет
    Основные цвета : BT.709
    Характеристики трансфера : BT.709
    Коэффициенты матрицы : BT.709

    Аудио #1
    Идентификатор : 2
    Формат : AC-3
    Формат/Информация : Audio Coding 3
    Расширение режима : CM (complete main)
    Параметр Endianness формата : Big
    Идентификатор кодека : A_AC3
    Продолжительность : 1 ч. 46 м.
    Вид битрейта : Постоянный
    Битрейт : 192 Кбит/сек
    Каналы : 2 канала
    Расположение каналов : Front: L R
    Частота : 48,0 КГц
    Битовая глубина : 16 бит
    Метод сжатия : С потерями
    Размер потока : 147 Мбайт (4%)
    Заголовок : Влад и Снежинка
    Язык : Russian
    Default : Да
    Forced : Да

    Аудио #2
    Идентификатор : 3
    Формат : AC-3
    Формат/Информация : Audio Coding 3
    Расширение режима : CM (complete main)
    Параметр Endianness формата : Big
    Идентификатор кодека : A_AC3
    Продолжительность : 1 ч. 46 м.
    Вид битрейта : Постоянный
    Битрейт : 384 Кбит/сек
    Каналы : 6 каналов
    Расположение каналов : Front: L C R, Side: L R, LFE
    Частота : 48,0 КГц
    Битовая глубина : 16 бит
    Метод сжатия : С потерями
    Размер потока : 293 Мбайт (9%)
    Язык : English
    Default : Нет
    Forced : Нет

    Текст
    Идентификатор : 4
    Формат : UTF-8
    Идентификатор кодека : S_TEXT/UTF8
    Идентификатор кодека/Информация : UTF-8 Plain Text
    Язык : English
    Default : Нет
    Forced : Нет

    Меню
    00:00:00.000 : en:It;s an Under
    00:11:48.000 : en:Rutger Katarina
    00:21:16.000 : en:Stuck in the Middle of Nowhere
    00:31:38.000 : en:Escape
    00:35:13.000 : en:You Never Stop
    00:44:42.000 : en:Where to Go?
    00:53:41.000 : en:You;ll have to do better than that!
    00:59:04.000 : en:Safety?
    01:10:18.000 : en:Mick Taylor
    01:19:22.000 : en:Aussie History
    01:32:17.000 : en:Beating the Game
    01:41:16.000 : en:Credits


    Залил: DGEKIGAN
    Размер скачиваемого торрента: 3.29 GB (3531086761 Bytes)

    Волчья яма 2 / Wolf Creek 2 (2013) WEB-DL 720p от CINEMANIA | L2 торрент скачать бесплатно
    загрузка...
    Рейтинг →
     (голосов: 1, оценка 5/5, голосовать можно 1 раз )

    Другие торренты по теме:

  • Волчья яма / Wolf Creek (2005) HDRip
  • Волчья яма 2 / Wolf Creek 2 (2013) WEB-DLRip-AVC | L2
  • Волчья яма 2 / Wolf Creek 2 (2013) WEB-DLRip | L2
  • Волчья яма 2 / Wolf Creek 2 (2013) WEB-DL 1080p от CINEMANIA | L2
  • Волчья яма 2 / Wolf Creek 2 (2013) WEB-DLRip | L1 скачать через торрент бесплатно
  • Волчья яма 2 / Wolf Creek 2 (2013) BDRip 1080p от CINEMANIA | L2, L1
  • Волчья яма 2 / Wolf Creek 2 (2013) BDRip 720p от CINEMANIA | L2, L1
  • Волчья яма 2 / Wolf Creek 2 (2013) BDRip 720p | L2


    • Комментарии (0):

      Информация

      Информация

        Посетители, находящиеся в группе Гости, не могут оставлять комментарии в данной новости.

        ↓ Меню



        ↓ Опрос

        А Вы добавили сайт в закладки?
        Да
        Не


        Top 10 за месяц (Фильмы)