.
Авторизация | Регистрация
Хочешь лучшие торренты? Добавь свой email!
Добавить
» » Волчья яма 2 / Wolf Creek 2 (2013) WEB-DLRip-AVC | L2 скачать торрент бесплатно




    Волчья яма 2 / Wolf Creek 2 (2013) WEB-DLRip-AVC | L2 скачать торрент бесплатно

    Опубликовал: Админ | Дата: 27-02-2015, 11:10 | Просмотров: 165



    Детально о кино
    Русское название: Волчья яма 2
    Русское название в мировом прокате: Wolf Creek 2
    Создали в: 2013
    Категория жанра: ужасы, триллер
    Главный режиссер: Грег МакЛин
    Актеры: Джон Джэррэт, Райан Корр, Шеннон Эшлин, Филлипп Клаус, Герард Кеннеди, Энни Байрон, Шэйн Коннор, Бен Джеррард, Хлоя Борхэм, Райан Кларк

    Сюжет фильма: Мик вернулся, чтобы убивать...
    Туристы Рутгер, Катарина и Пауль приезжают к знаменитой австралийской достопримечательности, кратеру потухшего вулкана Волчья Яма. Их мечты о приключениях вскоре обращаются в чудовищную реальность, когда они сталкиваются с печально известным местным жителем, садистом-убийцей Миком Тэйлором…




    Снималось в: Австралия
    Киностудия: Duo Art Productions, Emu Creek Pictures
    Время просмотра: 01:46:14
    Перевод текста: Любительское (двухголосое) DeadSno den904

    Файл
    Кодек для видео: h.264 (MKV)
    Качество фильма: WEB-DLRip-AVC
    Информация о видео: AVC, 1024 x 432, ~1796 kbps
    Информация о звуке: Русский: AC-3, 2 ch, 192 kbps / Английский: AC-3, 6 ch, 448 kbps
    Субтитры: Английский



    Скриншоты для ознакомления
    MI
    Общее
    Уникальный идентификатор : 168348648403719580577546155723716462494 (0x7EA6C532C2870C1E037BA147C20E879E)
    Полное имя : H:Волчья яма 2 Wolf Creek 2 (2013)Wolf.Creek.2.2013.WED-DLRip-AVC.mkv
    Формат : Matroska
    Версия формата : Version 2
    Размер файла : 1,85 Гбайт
    Продолжительность : 1 ч. 46 м.
    Режим общего битрейта : Переменный
    Общий поток : 2486 Кбит/сек
    Программа кодирования : Lavf51.12.1
    Библиотека кодирования : Lavf51.12.1

    Видео
    Идентификатор : 1
    Формат : AVC
    Формат/Информация : Advanced Video Codec
    Профиль формата : Baseline@L3.1
    Параметр CABAC формата : Нет
    Параметр ReFrames формата : 1 кадр
    Параметр GOP формата : M=1, N=12
    Идентификатор кодека : V_MPEG4/ISO/AVC
    Продолжительность : 1 ч. 46 м.
    Вид битрейта : Переменный
    Битрейт : 1796 Кбит/сек
    Максимальный битрейт : 2790 Кбит/сек
    Ширина : 1024 пикселя
    Высота : 432 пикселя
    Соотношение сторон : 2,40:1
    Режим частоты кадров : Постоянный
    Частота кадров : 23,976 кадра/сек
    Частота кадров в оригинале : 24,000 кадра/сек
    Цветовое пространство : YUV
    Субдискретизация насыщенности : 4:2:0
    Битовая глубина : 8 бит
    Тип развёртки : Прогрессивная
    Бит/(Пиксели*Кадры) : 0.169
    Размер потока : 1,34 Гбайт (72%)
    Язык : English
    Default : Да
    Forced : Нет

    Аудио #1
    Идентификатор : 2
    Формат : AC-3
    Формат/Информация : Audio Coding 3
    Расширение режима : CM (complete main)
    Параметр Endianness формата : Big
    Идентификатор кодека : A_AC3
    Продолжительность : 1 ч. 46 м.
    Вид битрейта : Постоянный
    Битрейт : 192 Кбит/сек
    Каналы : 2 канала
    Расположение каналов : Front: L R
    Частота : 48,0 КГц
    Битовая глубина : 16 бит
    Метод сжатия : С потерями
    Размер потока : 147 Мбайт (8%)
    Язык : Russian
    Default : Да
    Forced : Нет

    Аудио #2
    Идентификатор : 4
    Формат : AC-3
    Формат/Информация : Audio Coding 3
    Расширение режима : CM (complete main)
    Параметр Endianness формата : Big
    Идентификатор кодека : A_AC3
    Продолжительность : 1 ч. 46 м.
    Вид битрейта : Постоянный
    Битрейт : 448 Кбит/сек
    Каналы : 6 каналов
    Расположение каналов : Front: L C R, Side: L R, LFE
    Частота : 48,0 КГц
    Битовая глубина : 16 бит
    Метод сжатия : С потерями
    Размер потока : 342 Мбайт (18%)
    Язык : English
    Default : Да
    Forced : Нет

    Текст
    Идентификатор : 3
    Формат : UTF-8
    Идентификатор кодека : S_TEXT/UTF8
    Идентификатор кодека/Информация : UTF-8 Plain Text
    Язык : English
    Default : Да
    Forced : Нет

    Размер скачиваемого торрента: 1.85 GB (1988693468 Bytes)

    Волчья яма 2 / Wolf Creek 2 (2013) WEB-DLRip-AVC | L2 торрент скачать бесплатно
    загрузка...
    Рейтинг →
     (голосов: 1, оценка 4/5, голосовать можно 1 раз )

    Другие торренты по теме:

  • Волчья яма / Wolf Creek (2005) HDRip
  • Волчья яма 2 / Wolf Creek 2 (2013) WEB-DLRip | L2
  • Волчья яма 2 / Wolf Creek 2 (2013) WEB-DL 1080p от CINEMANIA | L2
  • Волчья яма 2 / Wolf Creek 2 (2013) WEB-DL 720p от CINEMANIA | L2
  • Волчья яма 2 / Wolf Creek 2 (2013) WEB-DLRip | L1 скачать через торрент бесплатно
  • Волчья яма 2 / Wolf Creek 2 (2013) BDRip 1080p от CINEMANIA | L2, L1
  • Волчья яма 2 / Wolf Creek 2 (2013) BDRip 720p от CINEMANIA | L2, L1
  • Волчья яма 2 / Wolf Creek 2 (2013) BDRip 720p | L2


    • Комментарии (0):

      Информация

      Информация

        Посетители, находящиеся в группе Гости, не могут оставлять комментарии в данной новости.

        ↓ Меню



        ↓ Опрос

        А Вы добавили сайт в закладки?
        Да
        Не


        Top 10 за месяц (Фильмы)