.
Авторизация | Регистрация
Хочешь лучшие торренты? Добавь свой email!
Добавить
» » Склифосовский 3 / Склиф (2014) WEB-DLRip от ExKinoRay скачать через торрент бесплатно




    Склифосовский 3 / Склиф (2014) WEB-DLRip от ExKinoRay скачать через торрент бесплатно

    Опубликовал: Админ | Дата: 27-02-2015, 11:10 | Просмотров: 247



    Детально о кино

    Русское название в мировом прокате: Склифосовский (Склиф)
    Создали в: 2014
    Категория жанра: Драма, мелодрама
    Снималось в: Россия, Кинокомпания Русское
    Главный режиссер: Юлия Краснова
    Актеры: Максим Аверин, Мария Куликова, Дмитрий Миллер, Ольга Павловец, Лаура Кеосаян, Марина Могилевская, Андрей Барило, Владимир Жеребцов, Константин Юшкевич, Антон Эльдаров, Александр Сирин, Анна Якунина, Екатерина Травова, Александр Чернявский, Надежда Горелова, Владимир Довжик, Евгения Дмитриева, Елена Яковлева, Евгений Михеев, Сергей Жигунов, Евгения Калинец, Владимир Кошеваров, Андрей Гусев, Максим Битюков, Пётр Кудряшов, Наталья Чернявская


    Сюжет фильма: Любимые герои Склифосовского вновь возвращаются на телеэкраны. Они продолжают спасать жизни, ежедневно принимая судьбоносные решения; и, почти лишенные свободного времени, пытаются построить своё личное счастье. После ухода Зименской, в Склиф неожиданно вернется Марина Нарочинская, назначенная главврачом. Ее возвращение станет тяжелым испытанием для Брагина, теперь примерного семьянина. Немало шокирующих сюрпризов преподнесет его молодая жена, кроткая медсестра Лена.. Мир в семье Пастуховых пошатнёт смещение Петра с должности зав.отделения: после появления ребенка Полина уже не сможет сквозь пальцы смотреть на инфантильность своего мужа в быту. Салама ждет настоящая взрослая жизнь с его избранницей Юлей. Неискушенный, наивный парень прежде и не подозревал, как нелегко ему будет сохранить отношения с девушкой, воспитанной на совершенно иных ценностях. остику предстоит ответить себе на главный вопрос – что же ему дороже: работа на износ за небольшие деньги в Склифе или размеренная обеспеченная жизнь? Зрители увидят развитие романа ботаника Яна и мечтательной медсестры Третьяковой. Перемены придут в отношения Нины с Неклюдовым. В Склифе появятся и новые герои со своими непростыми судьбами..

    Файл

    Качество фильма: WEB-DLRip
    Информация о видео: XviD, ~ 1500 Кбит/с, 720x352, 720x400, 25 кадр/с
    Информация о звуке: AC3, 2 ch, 192 Кбит/с
    Размер скачиваемого торрента: 10.22 ГБ
    Время просмотра: 19 x ~ 00:46:00
    Язык: Русский


    За исходник, большое спасибо nikolspup


    Внимание, раздача ведется путем добавления новых серий!


    Инфо-файл

    Общее
    Полное имя : C:DownloadsSklifosovskij.(3.sezon).2014.WEB-DLRip.ExKinoRaySklifosovskij.3.(1.serija).2014.WEB-DLRip.ExKinoRay.avi
    Формат : AVI
    Формат/Информация : Audio Video Interleave
    Размер файла : 551 Мбайт
    Продолжительность : 46 м.
    Общий поток : 1665 Кбит/сек
    Программа кодирования : VirtualDubMod 1.5.10.3 | www.virtualdub-fr.org || (build 2550/release)
    Библиотека кодирования : VirtualDubMod build 2550/release

    Видео
    Идентификатор : 0
    Формат : MPEG-4 Visual
    Профиль формата : Advanced Simple@L5
    Параметр BVOP формата : 1
    Параметр QPel формата : Нет
    Параметр GMC формата : Без точки перехода
    Параметр матрицы формата : Выборочная
    Идентификатор кодека : XVID
    Идентификатор кодека/Подсказка : XviD
    Продолжительность : 46 м.
    Битрейт : 1463 Кбит/сек
    Ширина : 720 пикселей
    Высота : 400 пикселей
    Соотношение сторон : 16:9
    Частота кадров : 25,000 кадров/сек
    Цветовое пространство : YUV
    Субдискретизация насыщенности : 4:2:0
    Битовая глубина : 8 бит
    Тип развёртки : Прогрессивная
    Метод сжатия : С потерями
    Бит/(Пиксели*Кадры) : 0.203
    Размер потока : 484 Мбайт (88%)
    Библиотека кодирования : XviD 1.2.1 (UTC 2008-12-04)

    Аудио
    Идентификатор : 1
    Формат : AC-3
    Формат/Информация : Audio Coding 3
    Расширение режима : CM (complete main)
    Параметр Endianness формата : Big
    Идентификатор кодека : 2000
    Продолжительность : 46 м.
    Вид битрейта : Постоянный
    Битрейт : 192 Кбит/сек
    Каналы : 2 канала
    Расположение каналов : Front: L R
    Частота : 48,0 КГц
    Битовая глубина : 16 бит
    Метод сжатия : С потерями
    Размер потока : 63,5 Мбайт (12%)
    Выравнивание : Разделение по промежуткам
    Продолжительность промежутка : 40 мс. (1,00 видеокадр)
    Время предзагрузки промежутка : 500 мс.



    Скриншоты для ознакомления






    Релиз подготовил: Rip by:
    Залил: ollan
    Размер скачиваемого торрента: 10.22 GB (10969944064 Bytes)

    Склифосовский 3 / Склиф (2014) WEB-DLRip от ExKinoRay скачать через торрент бесплатно
    загрузка...
    Рейтинг →
     (голосов: 1, оценка 3/5, голосовать можно 1 раз )

    Другие торренты по теме:

  • Склифосовский 3 / Склиф (2014) HDTVRip от Files-x скачать через торрент бесплатно
  • Склифосовский 3 / Склиф (2014) HDTV 1080p от MediaClub скачать через торрент бесплатно
  • Склифосовский 3 (2014) SATRip скачать через торрент бесплатно
  • Склифосовский 3 / Склиф (2014) HDTVRip 720p от MediaClub скачать через торрент бесплатно
  • Склифосовский 3 / Склиф (2014) WEB-DLRip-AVC от ExKinoRay скачать через торрент бесплатно
  • Склифосовский 3 / Склиф (2014) WEB-DL 1080p от MediaClub скачать через торрент бесплатно


    • Комментарии (0):

      Информация

      Информация

        Посетители, находящиеся в группе Гости, не могут оставлять комментарии в данной новости.

        ↓ Меню



        ↓ Опрос

        А Вы добавили сайт в закладки?
        Да
        Не


        Top 10 за месяц (Фильмы)