.
Авторизация | Регистрация
Хочешь лучшие торренты? Добавь свой email!
Добавить
» » Паранормальное явление: Метка Дьявола / Paranormal Activity: The Marked Ones (2014) BDRemux 1080p от New-Team | D | лицензия скачать через торрент бесплатно




    Паранормальное явление: Метка Дьявола / Paranormal Activity: The Marked Ones (2014) BDRemux 1080p от New-Team | D | лицензия скачать через торрент бесплатно

    Опубликовал: Админ | Дата: 27-02-2015, 11:10 | Просмотров: 153

    Конец близок



    Снималось в: США / Blumhouse Productions, Paramount Pictures, Room 101, Solana Films

    Категория жанра: ужасы, триллер
    Создали в: 2014
    Время просмотра: 01:24:12

    Перевод текста: Профессиональный (дублированный)
    Субтитры подготовлены: русский, английский, украинский
    Оригинальная аудиодорожка: английский

    Главный режиссер: Кристофер Б. Лэндон / Christopher B. Landon

    Актеры: Кэти Физерстон, Молли Эфраим, Мередит Итон, Брайан Стил, Эндрю Джейкобс, Хорхе Диаз, Ричард Кебрал, Катрин Торбио, Ноеми Гонзалез, Мика Слот...

    Роли дублировали: Олег Новиков, Даниил Эльдаров, Наталья Терешкова

    Сюжет: Паранормальное явление: Метка Дьявола открывает новые горизонты ужаса, заставляя кричать от страха. Оно вернулось, исполненное жаждой мести. И теперь оно нашло новую жертву. Джесси услышал жуткие звуки, доносящиеся из квартиры соседа. Взяв камеру, он надеялся запечатлеть их источник, но столкнулся с древним злом. Оно не успокоится, пока не заполучит душу Джесси.



    Качество фильма: Blu-ray 1080p
    Тип видео: MKV

    Информация о видео: 1920x1080, MPEG-4 AVC Video 30819 kbps 1080p / 23,976 fps / 16:9 / High Profile 4.1
    Информация о звуке:
    DTS-HD Master Audio English 2658 kbps 5.1 / 48 kHz / 2658 kbps / 24-bit (DTS Core: 5.1 / 48 kHz / 1509 kbps / 24-bit)
    Dolby Digital Audio Czech 640 kbps 5.1 / 48 kHz / 640 kbps / DN -4dB
    Dolby Digital Audio Polish 640 kbps 5.1 / 48 kHz / 640 kbps / DN -4dB
    Dolby Digital Audio Russian 640 kbps 5.1 / 48 kHz / 640 kbps / DN -4dB
    Dolby Digital Audio Thai 640 kbps 5.1 / 48 kHz / 640 kbps / DN -4dB
    Dolby Digital Audio Turkish 640 kbps 5.1 / 48 kHz / 640 kbps / DN -4dB
    Dolby Digital Audio Ukrainian 640 kbps 5.1 / 48 kHz / 640 kbps / DN -4dB
    Тип видео субтитров: PGS

    Дополнительно: Фильм разбит на главы, как на оригинальном Bly-Ray диске.

    Раздача от:
    MediaInfo

    Общее
    Полное имя : Paranormalnoye.yavlenie.Metka.dyavola.2014.D.BDRemux.1080p.New-Team.mkv
    Формат : Matroska
    Версия формата : Version 4 / Version 2
    Размер файла : 20,5 Гбайт
    Продолжительность : 1 ч. 24 м.
    Режим общего битрейта : Переменный
    Общий поток : 34,8 Мбит/сек
    Дата кодирования : UTC 2014-04-25 18:14:26
    Программа кодирования : mkvmerge v6.9.1 (;Blue Panther;) 64bit built on Apr 18 2014 18:23:38
    Библиотека кодирования : libebml v1.3.0 + libmatroska v1.4.1

    Видео
    Идентификатор : 1
    Формат : AVC
    Формат/Информация : Advanced Video Codec
    Профиль формата : High@L4.1
    Параметр CABAC формата : Да
    Параметр ReFrames формата : 2 кадра
    Параметр GOP формата : M=1, N=10
    Идентификатор кодека : V_MPEG4/ISO/AVC
    Продолжительность : 1 ч. 24 м.
    Вид битрейта : Переменный
    Ширина : 1920 пикселей
    Высота : 1080 пикселей
    Соотношение сторон : 16:9
    Режим частоты кадров : Постоянный
    Частота кадров : 23,976 кадра/сек
    Цветовое пространство : YUV
    Субдискретизация насыщенности : 4:2:0
    Битовая глубина : 8 бит
    Тип развёртки : Прогрессивная
    Язык : English
    Default : Да
    Forced : Нет

    Аудио #1
    Идентификатор : 2
    Формат : AC-3
    Формат/Информация : Audio Coding 3
    Расширение режима : CM (complete main)
    Параметр Endianness формата : Big
    Идентификатор кодека : A_AC3
    Продолжительность : 1 ч. 24 м.
    Вид битрейта : Постоянный
    Битрейт : 640 Кбит/сек
    Каналы : 6 каналов
    Расположение каналов : Front: L C R, Side: L R, LFE
    Частота : 48,0 КГц
    Битовая глубина : 16 бит
    Метод сжатия : С потерями
    Размер потока : 385 Мбайт (2%)
    Язык : Russian
    Default : Да
    Forced : Нет

    Аудио #2
    Идентификатор : 3
    Формат : DTS
    Формат/Информация : Digital Theater Systems
    Профиль формата : MA / Core
    Режим : 16
    Параметр Endianness формата : Big
    Идентификатор кодека : A_DTS
    Продолжительность : 1 ч. 24 м.
    Вид битрейта : Переменный
    Битрейт : Неизвестно / 1509 Кбит/сек
    Каналы : 6 каналов
    Расположение каналов : Front: L C R, Side: L R, LFE
    Частота : 48,0 КГц
    Битовая глубина : 24 бит
    Метод сжатия : Без потерь / Lossy
    Язык : English
    Default : Нет
    Forced : Нет

    Аудио #3
    Идентификатор : 4
    Формат : AC-3
    Формат/Информация : Audio Coding 3
    Расширение режима : CM (complete main)
    Параметр Endianness формата : Big
    Идентификатор кодека : A_AC3
    Продолжительность : 1 ч. 24 м.
    Вид битрейта : Постоянный
    Битрейт : 640 Кбит/сек
    Каналы : 6 каналов
    Расположение каналов : Front: L C R, Side: L R, LFE
    Частота : 48,0 КГц
    Битовая глубина : 16 бит
    Метод сжатия : С потерями
    Размер потока : 385 Мбайт (2%)
    Язык : Ukrainian
    Default : Нет
    Forced : Нет

    Текст #1
    Идентификатор : 5
    Формат : PGS
    Режим смешивания : zlib
    Идентификатор кодека : S_HDMV/PGS
    Идентификатор кодека/Информация : The same subtitle format used on BDs/HD-DVDs
    Язык : Russian
    Default : Нет
    Forced : Нет

    Текст #2
    Идентификатор : 6
    Формат : PGS
    Режим смешивания : zlib
    Идентификатор кодека : S_HDMV/PGS
    Идентификатор кодека/Информация : The same subtitle format used on BDs/HD-DVDs
    Язык : English
    Default : Нет
    Forced : Нет

    Текст #3
    Идентификатор : 7
    Формат : PGS
    Режим смешивания : zlib
    Идентификатор кодека : S_HDMV/PGS
    Идентификатор кодека/Информация : The same subtitle format used on BDs/HD-DVDs
    Язык : Ukrainian
    Default : Нет
    Forced : Нет

    Меню
    00:00:00.000 : en:00:00:00.000
    00:05:52.477 : en:00:05:52.477
    00:10:06.564 : en:00:10:06.564
    00:15:28.928 : en:00:15:28.928
    00:19:12.818 : en:00:19:12.818
    00:24:39.520 : en:00:24:39.520
    00:30:02.926 : en:00:30:02.926
    00:38:23.134 : en:00:38:23.134
    00:43:24.811 : en:00:43:24.811
    00:49:07.820 : en:00:49:07.820
    00:55:41.213 : en:00:55:41.213
    01:00:48.603 : en:01:00:48.603
    01:06:34.449 : en:01:06:34.449
    01:18:28.370 : en:01:18:28.370

    Скриншоты для ознакомления:



    Залил: avproh
    Размер скачиваемого торрента: 20.46 GB (21972031509 Bytes)

    Паранормальное явление: Метка Дьявола / Paranormal Activity: The Marked Ones (2014) BDRemux 1080p от New-Team | D | лицензия скачать через торрент бесплатно
    загрузка...
    Рейтинг →
     (голосов: 1, оценка 3/5, голосовать можно 1 раз )

    Другие торренты по теме:

  • Паранормальное явление 4 / Paranormal Activity 4 (2012) HDRip | UNRATED | Звук с CAMRip
  • Паранормальное явление 4 / Paranormal Activity 4 (2012) HDRip от Deadmauvlad | D | Unrated Directors Cut скачать через торрент бесплатно
  • Паранормальное явление: Метка Дьявола (2014) скачать через торрент бесплатно
  • Паранормальное явление 4 / Paranormal Activity 4 (2012) HDRip от Deadmauvlad | D | Unrated Directors Cut | USA Transfer
  • Паранормальное явление: Метка Дьявола / Paranormal Activity: The Marked Ones (2014) CAMRip скачать через торрент бесплатно
  • Паранормальное явление: Метка Дьявола / Paranormal Activity: The Marked Ones (2013) BDRip 720p | Чистый звук
  • Паранормальное явление: Метка Дьявола / Paranormal Activity: The Marked Ones (2013) HDRip | Чистый звук
  • Паранормальное явление: Метка Дьявола / Paranormal Activity: The Marked Ones (2013) HDRip | Звук c CAMRip


    • Комментарии (0):

      Информация

      Информация

        Посетители, находящиеся в группе Гости, не могут оставлять комментарии в данной новости.

        ↓ Меню



        ↓ Опрос

        А Вы добавили сайт в закладки?
        Да
        Не


        Top 10 за месяц (Фильмы)