.
Авторизация | Регистрация
Хочешь лучшие торренты? Добавь свой email!
Добавить
» » Вероника Марс / Veronica Mars (2014) BDRemux 1080p от NovaLan скачать через торрент бесплатно




    Вероника Марс / Veronica Mars (2014) BDRemux 1080p от NovaLan скачать через торрент бесплатно

    Опубликовал: Админ | Дата: 27-02-2015, 11:10 | Просмотров: 205



    Русское название: Вероника Марс
    Русское название в мировом прокате: Veronica Mars
    Создали в: 2014
    Категория жанра: Детектив, криминал, драма, комедия
    Главный режиссер: Роб Томас
    Актеры: Кристен Белл, Джейсон Доринг, Кристен Риттер, Райан Хансен, Фрэнсис Капра, Перси Даггс III, Крис Лоуэлл, Тина Мэйджорино, Энрико Колантони, Джеймс Франко
    Сюжет фильма:
    Когда-то помогая отцу распутывать преступления в родном городе Нептун, Вероника Марс понимала, что это не будет длиться вечно. Уехав в Нью-Йорк и получив должность адвоката в хорошей фирме, она была уверена, что вырвалась из замкнутого круга. Она ошибалась.
    Ее бывший парень Логан Экхолз обвиняется в убийстве своей подруги - молодой старлетки. Приняв решение помочь ему, Вероника возвращается в Нептун и начинает собственное расследование. Внезапно она оказывается в самой гуще событий, окруженная друзьями и врагами. И самый большой вопрос - кому можно верить, а кому - нет…


    Снималось в: США, Rob Thomas Productions, Silver Pictures Television, Stu Segall Productions Inc., Warner Bros. Pictures, Warner Bros. Television
    Время просмотра: 01:47:37
    Перевод текста: Профессиональный многоголосый (BaibaKo) / Любительский одноголосый (qwerty)

    Кодек для видео: H.264
    Качество фильма: Blu-Ray Remux 1080p
    Информация о видео: MPEG-4 AVC, 24711 Кбит/с, 1920x1080, 23.976 кадр/с
    Информация о звуке: Русский (AC3, 6 ch, 384 Кбит/с), английский (DTS-HD MA, 6 ch, 3352 Кбит/с)
    Субтитры: Русские, английские

    Инфо-файл

    Полное имя : D:Раздачи_DVeronica.Mars.2014.BDRemux.1080p.NovaLan.mkv
    Формат : Matroska
    Версия формата : Version 4 / Version 2
    Размер файла : 21,7 Гбайт
    Продолжительность : 1 ч. 47 м.
    Режим общего битрейта : Переменный
    Общий поток : 28,8 Мбит/сек
    Название фильма : Veronica Mars 2014 - NovaLan
    Дата кодирования : UTC 2014-04-26 02:17:23
    Программа кодирования : mkvmerge v6.9.1 (;Blue Panther;) 64bit built on Apr 18 2014 18:23:38
    Библиотека кодирования : libebml v1.3.0 + libmatroska v1.4.1

    Видео
    Идентификатор : 1
    Формат : AVC
    Формат/Информация : Advanced Video Codec
    Профиль формата : High@L4.1
    Параметр CABAC формата : Да
    Параметр ReFrames формата : 2 кадра
    Параметр GOP формата : M=1, N=10
    Идентификатор кодека : V_MPEG4/ISO/AVC
    Продолжительность : 1 ч. 47 м.
    Вид битрейта : Переменный
    Битрейт : 25,9 Мбит/сек
    Ширина : 1920 пикселей
    Высота : 1080 пикселей
    Соотношение сторон : 16:9
    Частота кадров : 23,976 кадра/сек
    Цветовое пространство : YUV
    Субдискретизация насыщенности : 4:2:0
    Битовая глубина : 8 бит
    Тип развёртки : Прогрессивная
    Бит/(Пиксели*Кадры) : 0.522
    Размер потока : 19,5 Гбайт (90%)
    Заголовок : Veronica Mars 2014 - NovaLan
    Default : Да
    Forced : Нет

    Аудио #1
    Идентификатор : 2
    Формат : AC-3
    Формат/Информация : Audio Coding 3
    Расширение режима : CM (complete main)
    Параметр Endianness формата : Big
    Идентификатор кодека : A_AC3
    Продолжительность : 1 ч. 47 м.
    Вид битрейта : Постоянный
    Битрейт : 384 Кбит/сек
    Каналы : 6 каналов
    Расположение каналов : Front: L C R, Side: L R, LFE
    Частота : 48,0 КГц
    Битовая глубина : 16 бит
    Метод сжатия : С потерями
    Размер потока : 296 Мбайт (1%)
    Язык : Russian
    Default : Да
    Forced : Нет

    Аудио #2
    Идентификатор : 3
    Формат : AC-3
    Формат/Информация : Audio Coding 3
    Расширение режима : CM (complete main)
    Параметр Endianness формата : Big
    Идентификатор кодека : A_AC3
    Продолжительность : 1 ч. 47 м.
    Вид битрейта : Постоянный
    Битрейт : 384 Кбит/сек
    Каналы : 6 каналов
    Расположение каналов : Front: L C R, Side: L R, LFE
    Частота : 48,0 КГц
    Битовая глубина : 16 бит
    Метод сжатия : С потерями
    Размер потока : 296 Мбайт (1%)
    Язык : Russian
    Default : Нет
    Forced : Нет

    Аудио #3
    Идентификатор : 4
    Формат : DTS
    Формат/Информация : Digital Theater Systems
    Профиль формата : MA / Core
    Идентификатор кодека : A_DTS
    Продолжительность : 1 ч. 47 м.
    Вид битрейта : Переменный
    Битрейт : 1561 Кбит/сек / 1510 Кбит/сек
    Каналы : 6 каналов
    Расположение каналов : Front: L C R, Side: L R, LFE
    Частота : 48,0 КГц
    Битовая глубина : 24 бит
    Метод сжатия : Без потерь / Lossy
    Язык : English
    Default : Нет
    Forced : Нет

    Текст #1
    Идентификатор : 5
    Формат : UTF-8
    Идентификатор кодека : S_TEXT/UTF8
    Идентификатор кодека/Информация : UTF-8 Plain Text
    Язык : Russian
    Default : Нет
    Forced : Нет

    Текст #2
    Идентификатор : 6
    Формат : UTF-8
    Идентификатор кодека : S_TEXT/UTF8
    Идентификатор кодека/Информация : UTF-8 Plain Text
    Язык : English
    Default : Нет
    Forced : Нет

    Меню
    00:00:00.000 : en:Chapter 1
    00:08:30.301 : en:Chapter 2
    00:18:54.633 : en:Chapter 3
    00:28:13.942 : en:Chapter 4
    00:39:44.799 : en:Chapter 5
    00:50:01.289 : en:Chapter 6
    00:58:07.859 : en:Chapter 7
    01:08:18.928 : en:Chapter 8
    01:17:10.459 : en:Chapter 9
    01:26:50.788 : en:Chapter 10
    01:36:28.324 : en:Chapter 11
    01:40:41.577 : en:Chapter 12
    01:47:37.367 : en:Chapter 13



    Релиз группа NovaLan
    Автор сборки Sergei7721






    Релиз подготовил:


    Залил: Sergei7721
    Размер скачиваемого торрента: 21.68 GB (23276794974 Bytes)

    Вероника Марс / Veronica Mars (2014) BDRemux 1080p от NovaLan скачать через торрент бесплатно
    загрузка...
    Рейтинг →
     (голосов: 1, оценка 4/5, голосовать можно 1 раз )

    Другие торренты по теме:

  • Вероника Марс / Veronica Mars (2004-2007) WEB-DLRip
  • Вероника Марс / Veronica Mars (2014) WEB-DL 720p | Sub скачать через торрент бесплатно
  • Вероника Марс / Veronica Mars (2014) WEB-DL 720p от CINEMANIA | L1
  • Вероника Марс / Veronica Mars (2014) WEB-DLRip от New-Team | L1
  • Вероника Марс / Veronica Mars (2014) WEB-DLRip-AVC | L1
  • Вероника Марс / Veronica Mars (2014) WEB-DLRIp-AVC от ExKinoRay | L1
  • Вероника Марс / Veronica Mars (2014) WEB-DLRip от New-Team | L | Baibako скачать через торрент бесплатно
  • Вероника Марс / Veronica Mars (2014) WEB-DLRip от Scarabey | BaibaKo скачать через торрент бесплатно


    • Комментарии (0):

      Информация

      Информация

        Посетители, находящиеся в группе Гости, не могут оставлять комментарии в данной новости.

        ↓ Меню



        ↓ Опрос

        А Вы добавили сайт в закладки?
        Да
        Не


        Top 10 за месяц (Фильмы)