.
Авторизация | Регистрация
Хочешь лучшие торренты? Добавь свой email!
Добавить
» » Машина времени / The Time Machine (2002) HDDVDRip 1080p by msltel | D, P, P2, A скачать через торрент бесплатно




    Машина времени / The Time Machine (2002) HDDVDRip 1080p by msltel | D, P, P2, A скачать через торрент бесплатно

    Опубликовал: Админ | Дата: 27-02-2015, 11:10 | Просмотров: 224



    Русское название: Машина времени
    Русское название в мировом прокате: The Time Machine
    Создали в: 2002
    Категория жанра: Фантастика, боевик, приключения
    Снималось в: США, Arnold Leibovit Entertainment, DreamWorks SKG, Parkes/MacDonald Productions, Warner Bros. Pictures
    Главный режиссер: Саймон Уэллс
    Актеры: Гай Пирс, Саманта Мамба, Орландо Джонс, Марк Эдди, Джереми Айронс, Сиенна Гиллори, Макс Бейкер, Филлида Ло, Лаура Кирк, Джош Стэмберг, Джон В. Момроу, Джеффри М. Мейер, Алан Янг, Минди Крист, Конни Рэй, Ленни Лофтин, Томас Кори Робинсон, Омеро Мамба, Янси Ариас, Ричард Цетрон, Эдвард Конна, Крис Сэйор, Джереми Фицджералд, Крэйг Дэвис, Грэйди Холдер, Брайан Фрайдэй

    Сюжет фильма: Профессор Александр Хартдеген изобрёл машину времени и отправился в прошлое спасти свою невесту от случайной пули. Но её смерть предотвратить не удалось - прошлое нельзя изменить. В поисках ответа на вопрос почему? Хартдеген забирается на двести лет в будущее и застает Землю в ужасающем состоянии. Получив ранение и впав в беспамятство, он и не заметил, как его машина прошла сквозь восемьсот тысяч лет истории планеты Земля - человечество изменилось, эпоха технократии канула в лету.

    Качество фильма: HDDVDRip 1080p
    Размер скачиваемого торрента: 9.05 ГБ
    Время просмотра: 01:35:44

    Информация о видео: MPEG-4 AVC, 8128 Кбит/с, 1920x794
    Информация о звуке 1: русский, 48 kHz, DTS, 6 ch, 755 kbps avg, Дублированный
    Информация о звуке 2: русский, 48 kHz, DTS, 6 ch, 755 kbps avg, Профессиональный многоголосый, вариант 1
    Информация о звуке 3: русский, 48 kHz, AC3, 6 ch, 384 kbps avg, Профессиональный многоголосый, вариант 2
    Информация о звуке 4: русский, 48 kHz, AC3, 6 ch, 384 kbps avg, Профессиональный двухголосый, Пётр Гланц и Инна Королёва
    Субтитры: русские (надписи)

    Внешние файлы
    Информация о звуке: русский, 48 kHz, AC3, 6 ch, 448 kbps avg, Дублированный
    Информация о звуке: русский, 48 kHz, AC3, 6 ch, 448 kbps avg, Профессиональный многоголосый, вариант 1
    Информация о звуке: русский, 48 kHz, AC3, 2 ch, 384 kbps avg, Авторский, Векшин
    Информация о звуке: русский, 48 kHz, AC3, 6 ch, 448 kbps avg, Авторский, Леонид Володарский
    Информация о звуке: русский, 48 kHz, AC3, 6 ch, 448 kbps avg, Авторский, Сергей Кузнецов
    Информация о звуке: английский, 48 kHz, DTS, 6 ch, 755 kbps avg, Оригинал
    Субтитры: русские
    Субтитры: английские

    Исходник: Sergei7721 (Кинозал)

    Сравнение с исходником



    MediaInfo+ Лог х264
    Общее
    Полное имя : D:VideoMashina vremeni.2002.x264.HDDVDRip.1080pMashina vremeni.2002.AVO.rus.Векшин.ac3
    Формат : AC-3
    Формат/Информация : Audio Coding 3
    Размер файла : 255 Мбайт
    Продолжительность : 1 ч. 32 м.
    Режим общего битрейта : Постоянный
    Общий поток : 384 Кбит/сек

    Аудио
    Формат : AC-3
    Формат/Информация : Audio Coding 3
    Расширение режима : CM (complete main)
    Параметр Endianness формата : Big
    Продолжительность : 1 ч. 32 м.
    Вид битрейта : Постоянный
    Битрейт : 384 Кбит/сек
    Каналы : 2 канала
    Расположение каналов : Front: L R
    Частота : 48,0 КГц
    Битовая глубина : 16 бит
    Метод сжатия : С потерями
    Размер потока : 255 Мбайт (100%)

    Общее
    Полное имя : D:VideoMashina vremeni.2002.x264.HDDVDRip.1080pMashina vremeni.2002.AVO.rus.Л.Володарский.ac3
    Формат : AC-3
    Формат/Информация : Audio Coding 3
    Размер файла : 307 Мбайт
    Продолжительность : 1 ч. 35 м.
    Режим общего битрейта : Постоянный
    Общий поток : 448 Кбит/сек

    Аудио
    Формат : AC-3
    Формат/Информация : Audio Coding 3
    Расширение режима : CM (complete main)
    Параметр Endianness формата : Big
    Продолжительность : 1 ч. 35 м.
    Вид битрейта : Постоянный
    Битрейт : 448 Кбит/сек
    Каналы : 6 каналов
    Расположение каналов : Front: L C R, Side: L R, LFE
    Частота : 48,0 КГц
    Битовая глубина : 16 бит
    Метод сжатия : С потерями
    Размер потока : 307 Мбайт (100%)

    Общее
    Полное имя : D:VideoMashina vremeni.2002.x264.HDDVDRip.1080pMashina vremeni.2002.AVO.rus.С.Кузнецов.ac3
    Формат : AC-3
    Формат/Информация : Audio Coding 3
    Размер файла : 307 Мбайт
    Продолжительность : 1 ч. 35 м.
    Режим общего битрейта : Постоянный
    Общий поток : 448 Кбит/сек

    Аудио
    Формат : AC-3
    Формат/Информация : Audio Coding 3
    Расширение режима : CM (complete main)
    Параметр Endianness формата : Big
    Продолжительность : 1 ч. 35 м.
    Вид битрейта : Постоянный
    Битрейт : 448 Кбит/сек
    Каналы : 6 каналов
    Расположение каналов : Front: L C R, Side: L R, LFE
    Частота : 48,0 КГц
    Битовая глубина : 16 бит
    Метод сжатия : С потерями
    Размер потока : 307 Мбайт (100%)

    Общее
    Полное имя : D:VideoMashina vremeni.2002.x264.HDDVDRip.1080pMashina vremeni.2002.DUB.rus.ac3
    Формат : AC-3
    Формат/Информация : Audio Coding 3
    Размер файла : 307 Мбайт
    Продолжительность : 1 ч. 35 м.
    Режим общего битрейта : Постоянный
    Общий поток : 448 Кбит/сек

    Аудио
    Формат : AC-3
    Формат/Информация : Audio Coding 3
    Расширение режима : CM (complete main)
    Параметр Endianness формата : Big
    Продолжительность : 1 ч. 35 м.
    Вид битрейта : Постоянный
    Битрейт : 448 Кбит/сек
    Каналы : 6 каналов
    Расположение каналов : Front: L C R, Side: L R, LFE
    Частота : 48,0 КГц
    Битовая глубина : 16 бит
    Метод сжатия : С потерями
    Размер потока : 307 Мбайт (100%)

    Общее
    Полное имя : D:VideoMashina vremeni.2002.x264.HDDVDRip.1080pMashina vremeni.2002.eng.srt
    Размер файла : 87,0 Кбайт

    Общее
    Полное имя : D:VideoMashina vremeni.2002.x264.HDDVDRip.1080pMashina vremeni.2002.MVO1.rus.ac3
    Формат : AC-3
    Формат/Информация : Audio Coding 3
    Размер файла : 307 Мбайт
    Продолжительность : 1 ч. 35 м.
    Режим общего битрейта : Постоянный
    Общий поток : 448 Кбит/сек

    Аудио
    Формат : AC-3
    Формат/Информация : Audio Coding 3
    Расширение режима : CM (complete main)
    Параметр Endianness формата : Big
    Продолжительность : 1 ч. 35 м.
    Вид битрейта : Постоянный
    Битрейт : 448 Кбит/сек
    Каналы : 6 каналов
    Расположение каналов : Front: L C R, Side: L R, LFE
    Частота : 48,0 КГц
    Битовая глубина : 16 бит
    Метод сжатия : С потерями
    Размер потока : 307 Мбайт (100%)

    Общее
    Полное имя : D:VideoMashina vremeni.2002.x264.HDDVDRip.1080pMashina vremeni.2002.Original.eng.dts
    Формат : DTS
    Формат/Информация : Digital Theater Systems
    Размер файла : 517 Мбайт
    Продолжительность : 1 ч. 35 м.
    Режим общего битрейта : Постоянный
    Общий поток : 755 Кбит/сек

    Аудио
    Формат : DTS
    Формат/Информация : Digital Theater Systems
    Режим : 16
    Параметр Endianness формата : Big
    Продолжительность : 1 ч. 35 м.
    Вид битрейта : Постоянный
    Битрейт : 755 Кбит/сек
    Каналы : 6 каналов
    Расположение каналов : Front: L C R, Side: L R, LFE
    Частота : 48,0 КГц
    Битовая глубина : 24 бит
    Метод сжатия : С потерями
    Размер потока : 517 Мбайт (100%)

    Общее
    Полное имя : D:VideoMashina vremeni.2002.x264.HDDVDRip.1080pMashina vremeni.2002.rus.srt
    Размер файла : 95,0 Кбайт

    Общее
    Уникальный идентификатор : 226300533386377258830186450368606256467 (0xAA3FE5B9E8246E649F217DD9917C3D53)
    Полное имя : D:VideoMashina vremeni.2002.x264.HDDVDRip.1080pMashina vremeni.2002.x264.HDDVDRip.1080p.mkv
    Формат : Matroska
    Версия формата : Version 4 / Version 2
    Размер файла : 7,10 Гбайт
    Продолжительность : 1 ч. 35 м.
    Общий поток : 10,6 Мбит/сек
    Дата кодирования : UTC 2014-04-26 06:00:20
    Программа кодирования : mkvmerge v6.9.1 (;Blue Panther;) 64bit built on Apr 18 2014 18:23:38
    Библиотека кодирования : libebml v1.3.0 + libmatroska v1.4.1

    Видео
    Идентификатор : 1
    Формат : AVC
    Формат/Информация : Advanced Video Codec
    Профиль формата : High@L4.1
    Параметр CABAC формата : Да
    Параметр ReFrames формата : 4 кадра
    Идентификатор кодека : V_MPEG4/ISO/AVC
    Продолжительность : 1 ч. 35 м.
    Битрейт : 8128 Кбит/сек
    Ширина : 1920 пикселей
    Высота : 794 пикселя
    Соотношение сторон : 2,40:1
    Режим частоты кадров : Постоянный
    Частота кадров : 23,976 кадра/сек
    Цветовое пространство : YUV
    Субдискретизация насыщенности : 4:2:0
    Битовая глубина : 8 бит
    Тип развёртки : Прогрессивная
    Бит/(Пиксели*Кадры) : 0.222
    Размер потока : 5,44 Гбайт (77%)
    Заголовок : BDRip -- STarankov
    Библиотека кодирования : x264 core 138 r2358 9e941d1
    Залил: msltel
    Размер скачиваемого торрента: 9.05 GB (9720350338 Bytes)


    Машина времени / The Time Machine (2002) HDDVDRip 1080p by msltel | D, P, P2, A скачать через торрент бесплатно
    загрузка...
    Рейтинг →
     (голосов: 1, оценка 4/5, голосовать можно 1 раз )

    Другие торренты по теме:

  • Машина Времени и Воскресение 50 лет на двоих (2000-2004) DVDRip-AVC
  • OST - Машина времени / The Time Machine (1960) MP3
  • Машина Времени. Ловушка (2010) PC | Repack от R.G. UPG
  • Машина Времени и Воскресение - 50 лет на двоих в Кремле (2000) DVDRip
  • Тачки: Байки Мэтра - Мэтр - машина времени / Time Travel Mater (2012) BDRip 1080p
  • Машина времени в джакузи / Hot Tub Time Machine (2010) BDRip
  • Машина времени в джакузи / Hot Tub Time Machine (2010) HDRip-AVC | D
  • Машина времени в джакузи / Hot Tub Time Machine (2010) HDRip от Scarabey | D | Театральная версия


    • Комментарии (0):

      Информация

      Информация

        Посетители, находящиеся в группе Гости, не могут оставлять комментарии в данной новости.

        ↓ Меню



        ↓ Опрос

        А Вы добавили сайт в закладки?
        Да
        Не


        Top 10 за месяц (Фильмы)