.
Авторизация | Регистрация
Хочешь лучшие торренты? Добавь свой email!
Добавить
» » Тайный игрок / Shadow Dancer (2012) BDRip-AVC | iPad | P2 скачать через торрент бесплатно




    Тайный игрок / Shadow Dancer (2012) BDRip-AVC | iPad | P2 скачать через торрент бесплатно

    Опубликовал: Админ | Дата: 27-02-2015, 11:10 | Просмотров: 207



    Тайный игрок / Shadow Dancer (2012) BDRip-AVC | iPad | P2

    Русское название: Тайный игрок
    Русское название в мировом прокате: Shadow Dancer
    Создали в: 2012
    Категория жанра: триллер, драма
    Главный режиссер: Джеймс Марш
    Актеры: Клайв Оуэн, Андреа Райзборо, Джиллиан Андерсон, Эйден Гиллен, Донал Глисон, Брид Бреннан, Дэвид Уилмот, Стюарт Грэхэм, Мартин МакКанн, Бэрри Барнс

    Сюжет фильма:
    Молодая женщина, бывшая участница Ирландской Республиканской Армии, вынуждена стать информатором британских спецслужб



    Снималось в: Великобритания, Ирландия
    Киностудия: BBC Films, Element Pictures, Irish Film Board

    Время просмотра: 01:41:51
    Перевод текста: Русский профессиональный двухголосый закадровый

    Файл
    Кодек для видео: H.264
    Качество фильма: BDRip-AVC 576p
    Информация о видео: 1024x436 (2.35:1) at 23.976 fps, AVC at 2250 kbps
    Информация о звуке:
    1: АAС 2.0 200 kbps - Русский профессиональный двухголосый закадровый
    2: АAС 2.0 132 kbps - Английский
    Субтитры: Отсутствует

    MI

    General
    Complete name : C:CREATE264mod1outShadow.Dancer.2012.576p.P2.m4v
    Format : MPEG-4
    Codec ID : M4V
    File size : 1.85 GiB
    Duration : 1h 41mn
    Overall bit rate mode : Variable
    Overall bit rate : 2 601 Kbps
    Movie name : Тайный игрок
    Performer : James Marsh
    Genre : Thriller
    ContentType : Short Film
    Deion : Молодая женщина, бывшая участница Ирландской Республиканской Армии, вынуждена стать информатором британских спецслуaжб.
    Recorded date : UTC 2012-01-24 08:00:00
    Encoded date : UTC 2014-04-24 17:07:57
    Tagged date : UTC 2014-04-24 17:17:50
    Copyright : BBC Films, Element Pictures, Irish Film Board
    Cover : Yes
    Comment : Collette McVeigh - Mother, Daughter, Sister, Spy
    ContentRating : mpaa|R|400|

    Title/Sort : Shadow Dancer
    LongDeion : Молодая женщина, бывшая участница Ирландской Республиканской Армии, вынуждена стать информатором британских спецслужб.
    AppleStoreCatalogID : 630294496
    Vendor : Apple:vendor_id:2012-572095

    Video
    ID : 1
    Format : AVC
    Format/Info : Advanced Video Codec
    Format profile : High@L4.1
    Format settings, CABAC : Yes
    Format settings, ReFrames : 9 frames
    Codec ID : avc1
    Codec ID/Info : Advanced Video Coding
    Duration : 1h 41mn
    Bit rate : 2 250 Kbps
    Maximum bit rate : 11.3 Mbps
    Width : 1 024 pixels
    Height : 436 pixels
    Display aspect ratio : 2.35:1
    Frame rate mode : Constant
    Frame rate : 23.976 fps
    Color space : YUV
    Chroma subsampling : 4:2:0
    Bit depth : 8 bits
    Scan type : Progressive
    Bits/(Pixel*Frame) : 0.210
    Stream size : 1.60 GiB (86%)
    Language : English
    Encoded date : UTC 2014-04-24 17:07:57
    Tagged date : UTC 2014-04-24 17:08:10
    Matrix coefficients : BT.709

    Audio #1
    ID : 2
    Format : AAC
    Format/Info : Advanced Audio Codec
    Format profile : LC
    Codec ID : 40
    Duration : 1h 41mn
    Bit rate mode : Variable
    Bit rate : 209 Kbps
    Maximum bit rate : 258 Kbps
    Channel(s) : 2 channels
    Channel positions : Front: L R
    Sampling rate : 48.0 KHz
    Compression mode : Lossy
    Stream size : 152 MiB (8%)
    Title : DVO
    Language : Russian
    Encoded date : UTC 2014-04-24 17:08:05
    Tagged date : UTC 2014-04-24 17:08:10

    Audio #2
    ID : 3
    Format : AAC
    Format/Info : Advanced Audio Codec
    Format profile : LC
    Codec ID : 40
    Duration : 1h 41mn
    Bit rate mode : Variable
    Bit rate : 132 Kbps
    Maximum bit rate : 167 Kbps
    Channel(s) : 2 channels
    Channel positions : Front: L R
    Sampling rate : 48.0 KHz
    Compression mode : Lossy
    Stream size : 95.5 MiB (5%)
    Title : Original
    Language : English
    Encoded date : UTC 2014-04-24 17:06:10
    Tagged date : UTC 2014-04-24 17:08:10

    iTunes tags


    Sort Name: Shadow Dancer
    XID: Apple:vendor_id:2012-572095
    Content ID: 630294496
    Copyright: BBC Films, Element Pictures, Irish Film Board
    ScreenWriters: Том Брэдби
    Producers: Крис Коэн, Эд Гуене, Эндрю Лоу
    Director: Джеймс Марш
    Cast: Клайв Оуэн, Андреа Райзборо, Джиллиан Андерсон, Эйден Гиллен, Донал Глисон, Брид Бреннан, Дэвид Уилмот, Стюарт Грэхэм, Мартин МакКанн, Бэрри Барнс // Andrea Riseborough (Colette McVeigh), Clive Owen (Mac), Gillian Anderson (Kate Fletcher), Aidan Gillen (Gerry), Domhnall Gleeson (Connor), Brid Brennan (Ma), David Wilmot (Kevin Mulville), Stuart Graham (Ian Gilmour), Martin McCann (Brendan), Maria Laird (Young Collette), Barry Barnes (Gerry Senior), Michael McElhatton (Liam Hughes), Gary Lydon (Geoff)
    Rating: R
    Long Deion: Молодая женщина, бывшая участница Ирландской Республиканской Армии, вынуждена стать информатором британских спецслужб.
    Deion: Молодая женщина, бывшая участница Ирландской Республиканской Армии, вынуждена стать информатором британских спецслужб.
    Release Date: 2012-01-24T08:00:00Z
    Genre: Thriller
    Artist: James Marsh
    Name: Тайный игрок
    Comments: Collette McVeigh - Mother, Daughter, Sister, Spy

    x264

    x264 info: frame I:910 Avg QP:15.75 size: 61585
    x264 info: frame P:27469 Avg QP:17.11 size: 24265
    x264 info: frame B:118142 Avg QP:19.90 size: 8430
    x264 info: consecutive B-frames: 1.4% 1.3% 4.5% 9.7% 16.4% 46.0% 5.6% 2.7% 3.9% 6.0% 1.5% 0.5% 0.4%
    x264 info: mb I I16..4: 15.7% 57.6% 26.7%
    x264 info: mb P I16..4: 1.0% 7.5% 3.5% P16..4: 30.5% 38.5% 13.2% 3.4% 0.5% skip: 2.0%
    x264 info: mb B I16..4: 0.1% 0.6% 0.7% B16..8: 37.3% 22.8% 3.1% direct: 5.8% skip:29.6% L0:42.2% L1:42.9% BI:14.8%
    x264 info: 8x8 transform intra:56.4% inter:35.1%
    x264 info: coded y,uvDC,uvAC intra: 85.3% 62.3% 39.8% inter: 24.6% 9.7% 3.5%
    x264 info: i16 v,h,dc,p: 11% 9% 26% 54%
    x264 info: i8 v,h,dc,ddl,ddr,vr,hd,vl,hu: 13% 9% 11% 8% 12% 12% 12% 11% 13%
    x264 info: i4 v,h,dc,ddl,ddr,vr,hd,vl,hu: 49% 9% 7% 5% 7% 7% 6% 5% 6%
    x264 info: i8c dc,h,v,p: 24% 39% 23% 14%
    x264 info: Weighted P-Frames: Y:2.1% UV:0.9%
    x264 info: ref P L0: 54.5% 7.9% 15.6% 7.0% 4.9% 3.7% 2.9% 1.7% 1.5% 0.1% 0.0%
    x264 info: ref B L0: 78.0% 9.3% 5.1% 2.6% 1.9% 1.5% 1.2% 0.5%
    x264 info: ref B L1: 93.1% 6.9%
    x264 info: kb/s:2249.59


    full-size screenshots










    Залил: gekka
    Размер скачиваемого торрента: 1.85 GB (1986878116 Bytes)

    Тайный игрок / Shadow Dancer (2012) BDRip-AVC | iPad | P2 скачать через торрент бесплатно
    загрузка...
    Рейтинг →
     (голосов: 1, оценка 5/5, голосовать можно 1 раз )

    Другие торренты по теме:

  • Тайный игрок / Shadow Dancer (2012) BDRip 720p от KinoFan | L1
  • Тайный игрок / Shadow Dancer (2012) HDRip | P2 скачать через торрент бесплатно
  • Тайный игрок / Shadow Dancer (2012) BDRip 720p от CINEMANIA | P2, L1
  • Тайный игрок / Shadow Dancer (2012) BDRip 1080p от CINEMANIA | P2, L1


    • Комментарии (0):

      Информация

      Информация

        Посетители, находящиеся в группе Гости, не могут оставлять комментарии в данной новости.

        ↓ Меню



        ↓ Опрос

        А Вы добавили сайт в закладки?
        Да
        Не


        Top 10 за месяц (Фильмы)