.
Авторизация | Регистрация
Хочешь лучшие торренты? Добавь свой email!
Добавить
» » Вероника Марс / Veronica Mars (2014) BDRip 1080p от CINEMANIA | L скачать через торрент бесплатно




    Вероника Марс / Veronica Mars (2014) BDRip 1080p от CINEMANIA | L скачать через торрент бесплатно

    Опубликовал: Админ | Дата: 27-02-2015, 11:10 | Просмотров: 211



    Детально о кино
    Русское название: Вероника Марс
    Русское название в мировом прокате: Veronica Mars
    Создали в: 2014
    Категория жанра: драма, комедия, криминал
    Главный режиссер: Роб Томас
    Актеры: Кристен Белл, Джейсон Доринг, Кристен Риттер, Райан Хансен, Фрэнсис Капра, Перси Даггс III, Крис Лоуэлл, Тина Мажорино, Энрико Колантони, Джеймс Франко

    Сюжет фильма:
    Вероника Марс – необычайно опытный для своего возраста детектив, на чьем счету не одно раскрытое преступление. Что, впрочем, не так уж удивительно, если вспомнить, что Вероника много лет прожила в городке Нептун, штат Калифорния, где помогала отцу раскрывать запутанные преступления. Даже для такой бойкой и активной девушки, как Вероника, юные годы оказались слишком богатыми на опасные события, и она решила, что нужно сменить обстановку и поле деятельности.

    С первым вышел полный порядок – Вероника благополучно переселилась в Нью-Йорк и обустроилась на новом месте, – а вот попытка бросить свою карьеру детектива получилась менее удачной. Получив сначала образование юриста, а потом и место в престижной фирме, Вероника вынуждена была на время отложить все планы, чтобы помочь своему бывшему молодому человеку – Логану Экхолзу, в настоящее время служащему на флоте. Когда становится известно, что Логана обвиняют в убийстве его девушки, Вероника отправляется в Нептун и берет расследование в свои руки.



    Снималось в: США
    Время просмотра: 01:47:37
    Тип перевода: Любительское (многоголосое) BaibaKo

    Файл
    Тип видео: MKV
    Качество фильма: BDRip 1080p PHD
    Информация о видео: 10400 kb/s, 1920x800
    Информация о звуке: Russian: AC3, 384 kb/s (6 ch) / English: DTS, 1510 kb/s (6 ch)
    Субтитры: Russian iTunes Russian, English
    Дополнительно: Сохранены оригинальные чаптеры как на Blu-Ray
    Размер скачиваемого торрента: 9.40 GB
    Скачать: Сэмпл

    Релиз группы:




    NFO
    Общее
    Veronica.Mars.The.Movie.2014.Blu.Ray.1080p.CINEMANIA.mkv
    Формат : Matroska
    Версия формата : Version 4 / Version 2
    Размер файла : 9,40 Гбайт
    Продолжительность : 1 ч. 47 м.
    Общий поток : 12,5 Мбит/сек
    Название фильма : Release Group CINEMANIA
    Дата кодирования : UTC 2014-04-24 08:16:10
    Программа кодирования : mkvmerge v6.9.1 (;Blue Panther;) 64bit built on Apr 18 2014 18:23:38
    Библиотека кодирования : libebml v1.3.0 + libmatroska v1.4.1

    Видео
    Идентификатор : 1
    Формат : AVC
    Формат/Информация : Advanced Video Codec
    Профиль формата : High@L4.1
    Параметр CABAC формата : Да
    Параметр ReFrames формата : 5 кадров
    Идентификатор кодека : V_MPEG4/ISO/AVC
    Продолжительность : 1 ч. 47 м.
    Битрейт : 10,4 Мбит/сек
    Ширина : 1920 пикселей
    Высота : 800 пикселей
    Соотношение сторон : 2,40:1
    Режим частоты кадров : Постоянный
    Частота кадров : 23,976 кадра/сек
    Цветовое пространство : YUV
    Субдискретизация насыщенности : 4:2:0
    Битовая глубина : 8 бит
    Тип развёртки : Прогрессивная
    Бит/(Пиксели*Кадры) : 0.281
    Размер потока : 7,79 Гбайт (83%)
    Заголовок : Release Group CINEMANIA
    Язык : English
    Default : Да
    Forced : Нет

    Аудио #1
    Идентификатор : 2
    Формат : AC-3
    Формат/Информация : Audio Coding 3
    Расширение режима : CM (complete main)
    Параметр Endianness формата : Big
    Идентификатор кодека : A_AC3
    Продолжительность : 1 ч. 47 м.
    Вид битрейта : Постоянный
    Битрейт : 384 Кбит/сек
    Каналы : 6 каналов
    Расположение каналов : Front: L C R, Side: L R, LFE
    Частота : 48,0 КГц
    Битовая глубина : 16 бит
    Метод сжатия : С потерями
    Размер потока : 296 Мбайт (3%)
    Заголовок : BaIBaKO
    Язык : Russian
    Default : Да
    Forced : Да

    Аудио #2
    Идентификатор : 3
    Формат : DTS
    Формат/Информация : Digital Theater Systems
    Режим : 16
    Параметр Endianness формата : Big
    Идентификатор кодека : A_DTS
    Продолжительность : 1 ч. 47 м.
    Вид битрейта : Постоянный
    Битрейт : 1509 Кбит/сек
    Каналы : 6 каналов
    Расположение каналов : Front: L C R, Side: L R, LFE
    Частота : 48,0 КГц
    Битовая глубина : 24 бит
    Метод сжатия : С потерями
    Размер потока : 1,13 Гбайт (12%)
    Язык : English
    Default : Нет
    Forced : Нет

    Текст #1
    Идентификатор : 4
    Формат : UTF-8
    Идентификатор кодека : S_TEXT/UTF8
    Идентификатор кодека/Информация : UTF-8 Plain Text
    Заголовок : Itunes Russian
    Язык : Russian
    Default : Нет
    Forced : Нет

    Текст #2
    Идентификатор : 5
    Формат : UTF-8
    Идентификатор кодека : S_TEXT/UTF8
    Идентификатор кодека/Информация : UTF-8 Plain Text
    Язык : English
    Default : Нет
    Forced : Нет

    Меню
    00:00:00.000 : en:00:00:00.000
    00:08:30.301 : en:00:08:30.301
    00:18:54.633 : en:00:18:54.633
    00:28:13.942 : en:00:28:13.942
    00:39:44.799 : en:00:39:44.799
    00:50:01.290 : en:00:50:01.290
    00:58:07.859 : en:00:58:07.859
    01:08:18.928 : en:01:08:18.928
    01:17:10.459 : en:01:17:10.459
    01:26:50.789 : en:01:26:50.789
    01:36:28.324 : en:01:36:28.324
    01:40:41.577 : en:01:40:41.577

    Залил: DGEKIGAN
    Размер скачиваемого торрента: 9.40 GB (10088668508 Bytes)

    Вероника Марс / Veronica Mars (2014) BDRip 1080p от CINEMANIA | L скачать через торрент бесплатно
    загрузка...
    Рейтинг →
     (голосов: 1, оценка 5/5, голосовать можно 1 раз )

    Другие торренты по теме:

  • Вероника Марс / Veronica Mars (2004-2007) WEB-DLRip
  • Вероника Марс / Veronica Mars (2014) WEB-DL 720p | Sub скачать через торрент бесплатно
  • Вероника Марс / Veronica Mars (2014) WEB-DL 720p от CINEMANIA | L1
  • Вероника Марс / Veronica Mars (2014) WEB-DLRip от New-Team | L1
  • Вероника Марс / Veronica Mars (2014) WEB-DLRip-AVC | L1
  • Вероника Марс / Veronica Mars (2014) WEB-DLRIp-AVC от ExKinoRay | L1
  • Вероника Марс / Veronica Mars (2014) WEB-DLRip от New-Team | L | Baibako скачать через торрент бесплатно
  • Вероника Марс / Veronica Mars (2014) WEB-DLRip от Scarabey | BaibaKo скачать через торрент бесплатно


    • Комментарии (0):

      Информация

      Информация

        Посетители, находящиеся в группе Гости, не могут оставлять комментарии в данной новости.

        ↓ Меню



        ↓ Опрос

        А Вы добавили сайт в закладки?
        Да
        Не


        Top 10 за месяц (Фильмы)