.
Авторизация | Регистрация
Хочешь лучшие торренты? Добавь свой email!
Добавить
» » И слоны бывают неверны / Un lphant a trompe normment (1976) BDRip 720p | P2 скачать через торрент бесплатно




    И слоны бывают неверны / Un lphant a trompe normment (1976) BDRip 720p | P2 скачать через торрент бесплатно

    Опубликовал: Админ | Дата: 27-02-2015, 11:10 | Просмотров: 258

    И слоны бывают неверны / Un ?l?phant ?a trompe ?norm?ment

    Русское название: И слоны бывают неверны
    Русское название в мировом прокате: Un ?l?phant ?a trompe ?norm?ment
    Создали в: 1976
    Категория жанра: Комедия


    Главный режиссер: Ив Робер

    Актеры: Жан Рошфор, Клод Брассёр, Ги Бедос, Виктор Лану, Даниэль Делорм, Анни Дюпре, Мартин Сарси, Марта Виллалонга


    Сюжет фильма:
    Слово режиссеру: Это откровенная комедия, в которой мужчины показаны довольно безжалостно... Это комедия без снисхождения. И действительно Ив Робер и сценарист Жан-Лу Дабади довольно остроумно вышучивают своих четырех недотеп-героев, которым уже за сорок, но они еще пускаются в любовные авантюры. Великолепная игра актеров, много забавных ситуаций. Клод Брассер получил Сезара за лучшую мужскую роль второго плана.





    Снималось в: Франция, Gaumont International, Les Productions de la Gu?ville
    Время просмотра: 01:48:30
    Перевод текста: Профессиональный двухголосый (СВ-Дубль)


    Качество фильма: BDRip 720p
    Информация о видео: MPEG-4 AVC, 5703 Кбит/с, 1200x720, 24 кадр/с
    Информация о звуке: Русский (AC3, 2 ch, 192 Кбит/с), французский (DTS, 2 ch, 1509 Кбит/с)


    Скриншоты для ознакомления



    MediaInfo
    Общее
    Уникальный идентификатор : 252859596242575631155578021865437069000 (0xBE3AFC9FC594F732833DF44BFEB4FEC8)
    Полное имя : E:I.slony.byvayut.neverny.1976.P.BDRip.720p.mkv
    Формат : Matroska
    Версия формата : Version 2
    Размер файла : 5,61 Гбайт
    Продолжительность : 1 ч. 48 м.
    Общий поток : 7404 Кбит/сек
    Дата кодирования : UTC 2014-04-24 08:42:14
    Программа кодирования : mkvmerge v6.9.1 (;Blue Panther;) 64bit built on Apr 18 2014 18:23:38
    Библиотека кодирования : libebml v1.3.0 + libmatroska v1.4.1

    Видео
    Идентификатор : 1
    Формат : AVC
    Формат/Информация : Advanced Video Codec
    Профиль формата : High@L3.1
    Параметр CABAC формата : Да
    Параметр ReFrames формата : 5 кадров
    Идентификатор кодека : V_MPEG4/ISO/AVC
    Продолжительность : 1 ч. 48 м.
    Битрейт : 5703 Кбит/сек
    Ширина : 1200 пикселей
    Высота : 720 пикселей
    Соотношение сторон : 1,667
    Режим частоты кадров : Постоянный
    Частота кадров : 24,000 кадра/сек
    Цветовое пространство : YUV
    Субдискретизация насыщенности : 4:2:0
    Битовая глубина : 8 бит
    Тип развёртки : Прогрессивная
    Бит/(Пиксели*Кадры) : 0.275
    Размер потока : 4,21 Гбайт (75%)
    Библиотека кодирования : x264 core 140 r2377 1ca7bb9
    Настройки программы : cabac=1 / ref=5 / deblock=1:0:0 / analyse=0x3:0x133 / me=umh / subme=8 / psy=1 / psy_rd=1.00:0.00 / mixed_ref=1 / me_range=16 / chroma_me=1 / trellis=1 / 8x8dct=1 / cqm=0 / deadzone=21,11 / fast_pskip=0 / chroma_qp_offset=-2 / threads=18 / lookahead_threads=3 / sliced_threads=0 / nr=0 / decimate=1 / interlaced=0 / bluray_compat=0 / constrained_intra=0 / bframes=3 / b_pyramid=2 / b_adapt=2 / b_bias=0 / direct=3 / weightb=1 / open_gop=0 / weightp=2 / keyint=250 / keyint_min=24 / scenecut=40 / intra_refresh=0 / rc_lookahead=50 / rc=2pass / mbtree=1 / bitrate=5703 / ratetol=1.0 / qcomp=0.60 / qpmin=0 / qpmax=69 / qpstep=4 / cplxblur=20.0 / qblur=0.5 / ip_ratio=1.40 / aq=1:1.00
    Язык : French
    Default : Да
    Forced : Нет

    Аудио #1
    Идентификатор : 2
    Формат : AC-3
    Формат/Информация : Audio Coding 3
    Расширение режима : CM (complete main)
    Параметр Endianness формата : Big
    Идентификатор кодека : A_AC3
    Продолжительность : 1 ч. 48 м.
    Вид битрейта : Постоянный
    Битрейт : 192 Кбит/сек
    Каналы : 2 канала
    Расположение каналов : Front: L R
    Частота : 48,0 КГц
    Битовая глубина : 16 бит
    Метод сжатия : С потерями
    Размер потока : 149 Мбайт (3%)
    Заголовок : DVO AC3 2.0
    Язык : Russian
    Default : Нет
    Forced : Нет

    Аудио #2
    Идентификатор : 3
    Формат : DTS
    Формат/Информация : Digital Theater Systems
    Режим : 16
    Параметр Endianness формата : Big
    Идентификатор кодека : A_DTS
    Продолжительность : 1 ч. 48 м.
    Вид битрейта : Постоянный
    Битрейт : 1509 Кбит/сек
    Каналы : 2 канала
    Расположение каналов : Front: L R
    Частота : 48,0 КГц
    Битовая глубина : 24 бит
    Метод сжатия : С потерями
    Размер потока : 1,14 Гбайт (20%)
    Заголовок : Original DTS 2.0
    Язык : French
    Default : Нет
    Forced : Нет

    Меню
    00:00:00.000 : en:00:00:00.000
    00:08:04.000 : en:00:08:04.000
    00:17:19.000 : en:00:17:19.000
    00:28:57.000 : en:00:28:57.000
    00:37:21.000 : en:00:37:21.000
    00:46:54.000 : en:00:46:54.000
    00:59:09.000 : en:00:59:09.000
    01:07:33.000 : en:01:07:33.000
    01:15:04.000 : en:01:15:04.000
    01:27:10.000 : en:01:27:10.000
    01:34:04.000 : en:01:34:04.000
    01:39:42.000 : en:01:39:42.000

    Размер скачиваемого торрента: 5.61 GB (6025101876 Bytes)

    И слоны бывают неверны / Un lphant a trompe normment (1976) BDRip 720p | P2 скачать через торрент бесплатно
    загрузка...
    Рейтинг →
     (голосов: 1, оценка 5/5, голосовать можно 1 раз )

    Другие торренты по теме:

  • И слоны бывают неверны / Un lphant a trompe normment (1974) DVDRip | P2
  • И слоны бывают неверны / Un lphant a trompe normment (1976) DVDRip-AVC скачать через торрент бесплатно
  • И слоны бывают неверны / Un lphant a trompe normment (1976) BDRip 1080p | P2 скачать через торрент бесплатно


    • Комментарии (0):

      Информация

      Информация

        Посетители, находящиеся в группе Гости, не могут оставлять комментарии в данной новости.

        ↓ Меню



        ↓ Опрос

        А Вы добавили сайт в закладки?
        Да
        Не


        Top 10 за месяц (Фильмы)