.
Авторизация | Регистрация
Хочешь лучшие торренты? Добавь свой email!
Добавить
» » Блондинка с обнаженной грудью / La blonde aux seins nus / The Blonde with Bare Breasts (2010) DVDRip-AVC | P скачать через торрент бесплатно




    Блондинка с обнаженной грудью / La blonde aux seins nus / The Blonde with Bare Breasts (2010) DVDRip-AVC | P скачать через торрент бесплатно

    Опубликовал: Админ | Дата: 27-02-2015, 11:10 | Просмотров: 366



    Детально о кино
    Русское название: Блондинка с обнаженной грудью
    Русское название в мировом прокате: La blonde aux seins nus / The Blonde with Bare Breasts
    Создали в: 2010
    Категория жанра: Драма, мелодрама
    Главный режиссер: Мануэль Прадаль
    Актеры: Ваина Джоканте, Николя Дювошель, Стив Ле Рой, Пол Шмидт, Брендан Бакманн, Жак Списсер, Кристиан Буйетт, Mireille Franchino, Джо Престиа, Fulvia Collongues

    Сюжет фильма:
    Жили-были на маленькой барже два брата — 25-летний Юлиан и 12-летний Луи. Иногда они совершали мелкие преступления.
    Однажды перекупщики антиквариата предложили им украсть в Музее D’Orsay знаменитую картину Эдуарда Мане, Блондинка с обнажённой грудью.
    В музее братья встретили дочь смотрителя — Розали, девушку благородную и честную, и оба влюбились в неё. Смогут ли они теперь совершить преступление?




    Снималось в: Франция
    Киностудия: L?gende Films, Canal+, R?gion Ile-de-France
    Время просмотра: 01:40:42
    Перевод текста: Профессиональное (многоголосое, закадровое) студия NLS

    Файл
    Кодек для видео: h.264 (MKV)
    Качество фильма: DVDRip-AVC
    Информация о видео: AVC, 1024 x 576, ~1956 kbps
    Информация о звуке: AC-3, 6 ch, 320 kbps
    Субтитры: нет

    Семпл

    Скриншоты для ознакомления
    MI
    Общее
    Полное имя : H:Блондинка с обнаженной грудью La blonde aux seins nus The Blonde with Bare Breasts (2010)La blonde aux seins nus 2010 DVDRip-AVC.mkv
    Формат : Matroska
    Версия формата : Version 1
    Размер файла : 1,63 Гбайт
    Продолжительность : 1 ч. 40 м.
    Режим общего битрейта : Переменный
    Общий поток : 2322 Кбит/сек
    Дата кодирования : UTC 2014-04-24 02:54:55
    Библиотека кодирования : WonderShare Matroska Muxer

    Видео
    Идентификатор : 1
    Формат : AVC
    Формат/Информация : Advanced Video Codec
    Профиль формата : Baseline@L3.1
    Параметр CABAC формата : Нет
    Параметр ReFrames формата : 1 кадр
    Параметр GOP формата : M=1, N=25
    Идентификатор кодека : V_MPEG4/ISO/AVC
    Продолжительность : 1 ч. 40 м.
    Вид битрейта : Переменный
    Битрейт : 1956 Кбит/сек
    Максимальный битрейт : 3000 Кбит/сек
    Ширина : 1024 пикселя
    Высота : 576 пикселей
    Соотношение сторон : 16:9
    Режим частоты кадров : Постоянный
    Частота кадров : 25,000 кадров/сек
    Цветовое пространство : YUV
    Субдискретизация насыщенности : 4:2:0
    Битовая глубина : 8 бит
    Тип развёртки : Прогрессивная
    Бит/(Пиксели*Кадры) : 0.133
    Размер потока : 1,38 Гбайт (84%)
    Default : Да
    Forced : Нет

    Аудио
    Идентификатор : 2
    Формат : AC-3
    Формат/Информация : Audio Coding 3
    Расширение режима : CM (complete main)
    Параметр Endianness формата : Big
    Идентификатор кодека : A_AC3
    Продолжительность : 1 ч. 40 м.
    Вид битрейта : Постоянный
    Битрейт : 320 Кбит/сек
    Каналы : 6 каналов
    Расположение каналов : Front: L C R, Side: L R, LFE
    Частота : 48,0 КГц
    Битовая глубина : 16 бит
    Метод сжатия : С потерями
    Размер потока : 231 Мбайт (14%)
    Default : Да
    Forced : Нет

    Размер скачиваемого торрента: 1.63 GB (1753942948 Bytes)

    Блондинка с обнаженной грудью / La blonde aux seins nus / The Blonde with Bare Breasts (2010) DVDRip-AVC | P скачать через торрент бесплатно
    загрузка...
    Рейтинг →
     (голосов: 1, оценка 3/5, голосовать можно 1 раз )

    Другие торренты по теме:

  • Взрывная блондинка / Atomic Blonde (2017) WEBRip 720p | Звук с TS


    • Комментарии (0):

      Информация

      Информация

        Посетители, находящиеся в группе Гости, не могут оставлять комментарии в данной новости.

        ↓ Меню



        ↓ Опрос

        А Вы добавили сайт в закладки?
        Да
        Не


        Top 10 за месяц (Фильмы)