.
Авторизация | Регистрация
Хочешь лучшие торренты? Добавь свой email!
Добавить
» » День труда / Labor Day (2013) BDRemux 1080p от NovaLan скачать через торрент бесплатно




    День труда / Labor Day (2013) BDRemux 1080p от NovaLan скачать через торрент бесплатно

    Опубликовал: Админ | Дата: 27-02-2015, 11:10 | Просмотров: 253



    Русское название: День труда
    Русское название в мировом прокате: Labor Day
    Создали в: 2013
    Категория жанра: Драма
    Главный режиссер: Джейсон Райтман
    Актеры: Кейт Уинслет, Джош Бролин, Гэттлин Гриффит, Тоби Магуайр, Том Липински, Майка Бакли, Кларк Грегг, Джеймс Ван Дер Бик, Дж.К. Симмонс, Брук Смит
    Сюжет фильма:
    Одинокая мать укрывает беглого убийцу в своем доме, где живет вместе с сыном. Полиция обшаривает весь городок в поисках преступника, а мать-одиночка, тем временем, узнает о своем госте горькую правду и перестает понимать, что же ей делать.


    Снималось в: США, Indian Paintbrush, Mr. Mudd, Right of Way Films
    Время просмотра: 01:51:13
    Перевод текста: Любительский одноголосый (datynet)

    Кодек для видео: H.264
    Качество фильма: Blu-Ray Remux 1080p
    Информация о видео: MPEG-4 AVC, 32832 Кбит/с, 1920x1080, 23.976 кадр/с
    Информация о звуке: Русский (AC3, 2 ch, 192 Кбит/с), английский (DTS-HD MA, 6 ch, 3287 Кбит/с), (AC3, 6 ch, 640 Кбит/с), (AC3, 2 ch, 224 Кбит/с) - коментарии
    Субтитры: Английские

    Инфо-файл

    Полное имя : D:Раздачи_DLabor.Day.2013.BDRemux.1080p.NovaLan.mkv
    Формат : Matroska
    Версия формата : Version 4 / Version 2
    Размер файла : 28,9 Гбайт
    Продолжительность : 1 ч. 51 м.
    Режим общего битрейта : Переменный
    Общий поток : 37,2 Мбит/сек
    Название фильма : Labor Day 2013 - NovaLan
    Дата кодирования : UTC 2014-04-23 14:13:13
    Программа кодирования : mkvmerge v6.9.1 (;Blue Panther;) 64bit built on Apr 18 2014 18:23:38
    Библиотека кодирования : libebml v1.3.0 + libmatroska v1.4.1

    Видео
    Идентификатор : 1
    Формат : AVC
    Формат/Информация : Advanced Video Codec
    Профиль формата : High@L4.1
    Параметр CABAC формата : Да
    Параметр ReFrames формата : 2 кадра
    Параметр GOP формата : M=1, N=10
    Идентификатор кодека : V_MPEG4/ISO/AVC
    Продолжительность : 1 ч. 51 м.
    Вид битрейта : Переменный
    Битрейт : 33,8 Мбит/сек
    Ширина : 1920 пикселей
    Высота : 1080 пикселей
    Соотношение сторон : 16:9
    Частота кадров : 23,976 кадра/сек
    Цветовое пространство : YUV
    Субдискретизация насыщенности : 4:2:0
    Битовая глубина : 8 бит
    Тип развёртки : Прогрессивная
    Бит/(Пиксели*Кадры) : 0.680
    Размер потока : 26,3 Гбайт (91%)
    Заголовок : Labor Day 2013 - NovaLan
    Default : Да
    Forced : Нет

    Аудио #1
    Идентификатор : 2
    Формат : AC-3
    Формат/Информация : Audio Coding 3
    Расширение режима : CM (complete main)
    Параметр Endianness формата : Big
    Идентификатор кодека : A_AC3
    Продолжительность : 1 ч. 51 м.
    Вид битрейта : Постоянный
    Битрейт : 192 Кбит/сек
    Каналы : 2 канала
    Расположение каналов : Front: L R
    Частота : 48,0 КГц
    Битовая глубина : 16 бит
    Метод сжатия : С потерями
    Размер потока : 153 Мбайт (1%)
    Язык : Russian
    Default : Да
    Forced : Нет

    Аудио #2
    Идентификатор : 3
    Формат : DTS
    Формат/Информация : Digital Theater Systems
    Профиль формата : MA / Core
    Идентификатор кодека : A_DTS
    Продолжительность : 1 ч. 51 м.
    Вид битрейта : Переменный
    Битрейт : 1576 Кбит/сек / 1510 Кбит/сек
    Каналы : 6 каналов
    Расположение каналов : Front: L C R, Side: L R, LFE
    Частота : 48,0 КГц
    Битовая глубина : 24 бит
    Метод сжатия : Без потерь / Lossy
    Язык : English
    Default : Нет
    Forced : Нет

    Аудио #3
    Идентификатор : 4
    Формат : AC-3
    Формат/Информация : Audio Coding 3
    Расширение режима : CM (complete main)
    Параметр Endianness формата : Big
    Идентификатор кодека : A_AC3
    Продолжительность : 1 ч. 51 м.
    Вид битрейта : Постоянный
    Битрейт : 640 Кбит/сек
    Каналы : 6 каналов
    Расположение каналов : Front: L C R, Side: L R, LFE
    Частота : 48,0 КГц
    Битовая глубина : 16 бит
    Метод сжатия : С потерями
    Размер потока : 509 Мбайт (2%)
    Язык : English
    Default : Нет
    Forced : Нет

    Аудио #4
    Идентификатор : 5
    Формат : AC-3
    Формат/Информация : Audio Coding 3
    Расширение режима : CM (complete main)
    Параметр Endianness формата : Big
    Идентификатор кодека : A_AC3
    Продолжительность : 1 ч. 51 м.
    Вид битрейта : Постоянный
    Битрейт : 224 Кбит/сек
    Каналы : 2 канала
    Расположение каналов : Front: L R
    Частота : 48,0 КГц
    Битовая глубина : 16 бит
    Метод сжатия : С потерями
    Размер потока : 178 Мбайт (1%)
    Язык : English
    Default : Нет
    Forced : Нет

    Текст
    Идентификатор : 6
    Формат : UTF-8
    Идентификатор кодека : S_TEXT/UTF8
    Идентификатор кодека/Информация : UTF-8 Plain Text
    Язык : English
    Default : Нет
    Forced : Нет

    Меню
    00:00:00.000 : en:Chapter 1
    00:06:36.312 : en:Chapter 2
    00:12:46.640 : en:Chapter 3
    00:18:25.020 : en:Chapter 4
    00:25:39.162 : en:Chapter 5
    00:33:48.359 : en:Chapter 6
    00:41:06.213 : en:Chapter 7
    00:48:19.479 : en:Chapter 8
    00:57:00.458 : en:Chapter 9
    01:07:58.032 : en:Chapter 10
    01:13:12.346 : en:Chapter 11
    01:19:58.752 : en:Chapter 12
    01:22:27.943 : en:Chapter 13
    01:29:03.254 : en:Chapter 14
    01:33:53.252 : en:Chapter 15
    01:46:36.932 : en:Chapter 16
    01:51:13.416 : en:Chapter 17



    Релиз группа NovaLan
    Автор сборки Sergei7721






    Релиз подготовил:


    Залил: Sergei7721
    Размер скачиваемого торрента: 28.89 GB (31015519646 Bytes)

    День труда / Labor Day (2013) BDRemux 1080p от NovaLan скачать через торрент бесплатно
    загрузка...
    Рейтинг →
     (голосов: 1, оценка 4/5, голосовать можно 1 раз )

    Другие торренты по теме:

  • День труда / Labor Day (2013) BDRip 1080p от CINEMANIA | L1 скачать через торрент бесплатно
  • День труда / Labor Day (2013) BDRip 720p от CINEMANIA | L1 скачать через торрент бесплатно
  • День труда / Labor Day (2013) HDRip | L1 скачать через торрент бесплатно
  • День труда / Labor Day (2013) BDRip-AVC | L1 скачать через торрент бесплатно
  • День труда / Labor Day (2013) BDRip-AVC от MediaClub | D | Лицензия скачать через торрент бесплатно
  • День труда / Labor Day (2013) BDRip 1080p | Лицензия скачать через торрент бесплатно
  • День труда / Labor Day (2013) BDRemux 1080p от ExKinoRay | D | Лицензия скачать через торрент бесплатно
  • День труда / Labor Day (2013) HDRip | Лицензия скачать через торрент бесплатно


    • Комментарии (0):

      Информация

      Информация

        Посетители, находящиеся в группе Гости, не могут оставлять комментарии в данной новости.

        ↓ Меню



        ↓ Опрос

        А Вы добавили сайт в закладки?
        Да
        Не


        Top 10 за месяц (Фильмы)