.
Авторизация | Регистрация
Хочешь лучшие торренты? Добавь свой email!
Добавить
» » Кельтские саги / The Winter Warrior (2003) DVDRip от New-Team скачать через торрент бесплатно




    Кельтские саги / The Winter Warrior (2003) DVDRip от New-Team скачать через торрент бесплатно

    Опубликовал: Админ | Дата: 27-02-2015, 11:10 | Просмотров: 198

    Воин зимы. Охотники за костями.



    Создали в: 2003
    Снималось в: Великобритания
    Киностудия: Palm Tree Productions
    Категория жанра: драма, приключения
    Время просмотра: 01:32:15 + 01:39:36

    Перевод текста: Профессиональный (многоголосый закадровый) лицензия
    Субтитры: нет
    Оригинальная аудиодорожка: английский

    Главный режиссер: Робби Моффат / Robbie Moffat

    Актеры: Джеймс Уотсон, Виктория Притчард, Джон-Пол Гейтс, Илария Д’Илайа, Пол Саундерс, Рэйчел Сазерленд, Гари Тейлор, Ник Бартлетт, Джонни Бой Гомес...

    Сюжет: 573 год н. э. Некогда могущественная и непобедимая нация кельтов обескровлена многолетней гражданской войной. Теперь в их бескрайних землях властвуют кровожадные племена англов, не щадящие ни женщин, ни детей. Отважный воин Фингал, бесстрашный командующий армией императора Юстиниана, возвращается из военного похода, еще не зная, что жестокие чужеземцы, убившие его родного брата, захватили в плен его жену. Вдвоем со смелой и прекрасной Джессикой, освобожденной им из рабства, Фингал держит путь в родны края, поклявшись не убирать в ножны свой легендарный меч Конана, пока земля его предков не обагрится кровью последнего англа...



    Исходник: 2xDVD5 R5
    Тип релиза: DVDRip
    Контейнер: AVI

    Информация о видео: 720x400 (16:9), 25 fps, XviD ~ 1354 kbps avg, 0.188 bit/pixel
    Информация о звуке: 48 kHz, AC3, 6 ch, 448.00 kbps Русский
    Информация о звуке: 48 kHz, AC3, 6 ch, 448.00 kbps Английский
    MediaInfo

    Общее
    Полное имя : Kel;tskie.sagi.2003.DVDRip_Youtracker_by_AVP Studio.avi
    Формат : AVI
    Формат/Информация : Audio Video Interleave
    Размер файла : 1,46 Гбайт
    Продолжительность : 1 ч. 32 м.
    Общий поток : 2265 Кбит/сек
    Программа кодирования : VirtualDubModRus 1.5.10.2 (build 2542/release)
    Библиотека кодирования : VirtualDubMod build 2542/release

    Видео
    Идентификатор : 0
    Формат : MPEG-4 Visual
    Профиль формата : Advanced Simple@L5
    Параметр BVOP формата : 1
    Параметр QPel формата : Нет
    Параметр GMC формата : Без точки перехода
    Параметр матрицы формата : Выборочная
    Идентификатор кодека : XVID
    Идентификатор кодека/Подсказка : XviD
    Продолжительность : 1 ч. 32 м.
    Битрейт : 1354 Кбит/сек
    Ширина : 720 пикселей
    Высота : 400 пикселей
    Соотношение сторон : 16:9
    Частота кадров : 25,000 кадров/сек
    Цветовое пространство : YUV
    Субдискретизация насыщенности : 4:2:0
    Битовая глубина : 8 бит
    Тип развёртки : Прогрессивная
    Метод сжатия : С потерями
    Бит/(Пиксели*Кадры) : 0.188
    Размер потока : 894 Мбайт (60%)
    Библиотека кодирования : XviD 65

    Аудио #1
    Идентификатор : 1
    Формат : AC-3
    Формат/Информация : Audio Coding 3
    Расширение режима : CM (complete main)
    Идентификатор кодека : 2000
    Продолжительность : 1 ч. 32 м.
    Вид битрейта : Постоянный
    Битрейт : 448 Кбит/сек
    Каналы : 6 каналов
    Расположение каналов : Front: L C R, Side: L R, LFE
    Частота : 48,0 КГц
    Битовая глубина : 16 бит
    Метод сжатия : С потерями
    Размер потока : 296 Мбайт (20%)
    Выравнивание : Разделение по промежуткам
    Продолжительность промежутка : 40 мс. (1,00 видеокадр)
    Время предзагрузки промежутка : 500 мс.

    Аудио #2
    Идентификатор : 2
    Формат : AC-3
    Формат/Информация : Audio Coding 3
    Расширение режима : CM (complete main)
    Идентификатор кодека : 2000
    Продолжительность : 1 ч. 32 м.
    Вид битрейта : Постоянный
    Битрейт : 448 Кбит/сек
    Каналы : 6 каналов
    Расположение каналов : Front: L C R, Side: L R, LFE
    Частота : 48,0 КГц
    Битовая глубина : 16 бит
    Метод сжатия : С потерями
    Размер потока : 296 Мбайт (20%)
    Выравнивание : Разделение по промежуткам
    Продолжительность промежутка : 40 мс. (1,00 видеокадр)
    Время предзагрузки промежутка : 500 мс

    Скриншоты для ознакомления



    Залил: AVPStudio
    Размер скачиваемого торрента: 2.92 GB (3135404032 Bytes)

    Кельтские саги / The Winter Warrior (2003) DVDRip от New-Team скачать через торрент бесплатно
    загрузка...
    Рейтинг →
     (голосов: 1, оценка 4/5, голосовать можно 1 раз )

    Другие торренты по теме:

  • Кельтские саги 2: Охотник за костями / The Bone Hunter (2003) DVDRip скачать через торрент бесплатно
  • Кельтские саги / The Winter Warrior (2003) DVDRip-AVC от New-Team скачать через торрент бесплатно


    • Комментарии (0):

      Информация

      Информация

        Посетители, находящиеся в группе Гости, не могут оставлять комментарии в данной новости.

        ↓ Меню



        ↓ Опрос

        А Вы добавили сайт в закладки?
        Да
        Не


        Top 10 за месяц (Фильмы)