.
Авторизация | Регистрация
Хочешь лучшие торренты? Добавь свой email!
Добавить
» » Враг / Enemy (2013) WEB-DL 720p от CINEMANIA | L1 скачать через торрент бесплатно




    Враг / Enemy (2013) WEB-DL 720p от CINEMANIA | L1 скачать через торрент бесплатно

    Опубликовал: Админ | Дата: 27-02-2015, 11:10 | Просмотров: 231



    Детально о кино
    Русское название: Враг
    Русское название в мировом прокате: Enemy
    Создали в: 2013
    Категория жанра: триллер, детектив
    Главный режиссер: Дени Вильнёв
    Актеры: Джейк Джилленхол, Мелани Лоран, Сара Гадон, Изабелла Росселлини, Джошуа Пиис, Тим Пост, Кедар Браун, Дэррил Динн, Миша Хайстэд, Меган Манн

    Сюжет фильма:
    Взяв наугад кассету с фильмом в видеопрокате, парень с удивлением замечает в одном из эпизодов актера, который является почти точной его копией, разве что на пару лет моложе. Вскоре желание найти своего двойника превращается для парня в настоящую навязчивую идею. Длительные бесплодные поиски, в конце концов, становятся причиной странных мистических событий, постепенно погружающих парня в пучину наваждения...



    Снималось в: Канада, Испания
    Время просмотра: 01:30:50
    Тип перевода: Любительское (одноголосое) ХихиДок

    Файл
    Тип видео: MKV
    Качество фильма: WEB-DL 720p PHD
    Информация о видео: 3998 kb/s, 1280x532
    Информация о звуке: Russian: AC3, 192 kb/s (2 ch) / English: AC3, 384 kb/s (6 ch)
    Субтитры: English
    Дополнительно: Сохранены оригинальные чаптеры как на Blu-Ray
    Размер скачиваемого торрента: 2.96 GB
    Скачать: Сэмпл

    Релиз группы:



    NFO
    Общее
    Enemy.2013.WEB-DL.720p.CINEMANIA.mkv
    Формат : Matroska
    Версия формата : Version 4 / Version 2
    Размер файла : 2,96 Гбайт
    Продолжительность : 1 ч. 30 м.
    Общий поток : 4667 Кбит/сек
    Название фильма : Release Group CINEMANIA
    Дата кодирования : UTC 2014-04-23 17:40:24
    Программа кодирования : mkvmerge v6.9.1 (;Blue Panther;) 64bit built on Apr 18 2014 18:23:38
    Библиотека кодирования : libebml v1.3.0 + libmatroska v1.4.1

    Видео
    Идентификатор : 1
    Формат : AVC
    Формат/Информация : Advanced Video Codec
    Профиль формата : Main@L3.1
    Параметр CABAC формата : Нет
    Параметр ReFrames формата : 2 кадра
    Идентификатор кодека : V_MPEG4/ISO/AVC
    Продолжительность : 1 ч. 30 м.
    Битрейт : 3998 Кбит/сек
    Ширина : 1280 пикселей
    Высота : 532 пикселя
    Соотношение сторон : 2,40:1
    Режим частоты кадров : Постоянный
    Частота кадров : 23,976 кадра/сек
    Цветовое пространство : YUV
    Субдискретизация насыщенности : 4:2:0
    Битовая глубина : 8 бит
    Тип развёртки : Прогрессивная
    Бит/(Пиксели*Кадры) : 0.245
    Размер потока : 2,54 Гбайт (86%)
    Заголовок : Release Group CINEMANIA
    Язык : English
    Default : Да
    Forced : Нет
    Основные цвета : BT.709
    Характеристики трансфера : BT.709
    Коэффициенты матрицы : BT.709

    Аудио #1
    Идентификатор : 2
    Формат : AC-3
    Формат/Информация : Audio Coding 3
    Расширение режима : CM (complete main)
    Параметр Endianness формата : Big
    Идентификатор кодека : A_AC3
    Продолжительность : 1 ч. 30 м.
    Вид битрейта : Постоянный
    Битрейт : 192 Кбит/сек
    Каналы : 2 канала
    Расположение каналов : Front: L R
    Частота : 48,0 КГц
    Битовая глубина : 16 бит
    Метод сжатия : С потерями
    Размер потока : 125 Мбайт (4%)
    Заголовок : ХиХиДок
    Язык : Russian
    Default : Да
    Forced : Да

    Аудио #2
    Идентификатор : 3
    Формат : AC-3
    Формат/Информация : Audio Coding 3
    Расширение режима : CM (complete main)
    Параметр Endianness формата : Big
    Идентификатор кодека : A_AC3
    Продолжительность : 1 ч. 30 м.
    Вид битрейта : Постоянный
    Битрейт : 384 Кбит/сек
    Каналы : 6 каналов
    Расположение каналов : Front: L C R, Side: L R, LFE
    Частота : 48,0 КГц
    Битовая глубина : 16 бит
    Метод сжатия : С потерями
    Размер потока : 250 Мбайт (8%)
    Язык : English
    Default : Нет
    Forced : Нет

    Текст
    Идентификатор : 4
    Формат : UTF-8
    Идентификатор кодека : S_TEXT/UTF8
    Идентификатор кодека/Информация : UTF-8 Plain Text
    Язык : English
    Default : Нет
    Forced : Нет

    Меню
    00:00:00.000 : en:Chapter 1
    00:04:57.000 : en:Chapter 2
    00:09:19.000 : en:Chapter 3
    00:15:45.000 : en:Chapter 4
    00:22:25.000 : en:Chapter 5
    00:26:24.000 : en:Chapter 6
    00:30:57.000 : en:Chapter 7
    00:35:43.000 : en:Chapter 8
    00:37:34.000 : en:Chapter 9
    00:42:11.000 : en:Chapter 10
    00:48:55.000 : en:Chapter 11
    00:52:50.000 : en:Chapter 12
    00:55:15.000 : en:Chapter 13
    00:59:19.000 : en:Chapter 14
    01:02:25.000 : en:Chapter 15
    01:06:32.000 : en:Chapter 16
    01:10:08.000 : en:Chapter 17
    01:15:10.000 : en:Chapter 18
    01:20:39.000 : en:Chapter 19
    01:23:16.000 : en:Chapter 20

    Залил: DGEKIGAN
    Размер скачиваемого торрента: 2.96 GB (3179757291 Bytes)

    Враг / Enemy (2013) WEB-DL 720p от CINEMANIA | L1 скачать через торрент бесплатно
    загрузка...
    Рейтинг →
     (голосов: 1, оценка 3/5, голосовать можно 1 раз )

    Другие торренты по теме:

  • Под нами враг / Враг внизу / Цель под нами / The Enemy Below (1957) DVDRip от KinoRay Sheikn | P2, A
  • Близкий враг / Дорогой враг / Dual Crisis / Dear Enemy / Qin Mi Di Ren (2011) BDRip-AVC от MediaClub | L2 скачать через торрент бесплатно
  • Враг государства / Enemy of the State (1998) DVDRip | Расширенная версия / Unrated
  • Враг мой / Enemy Mine (1985) DVD-9
  • Скрытый враг / The Hidden (1987) WEB-DLRip 720p | Р2, А
  • Вчерашний враг / Yesterdays Enemy (1959) DVDRip-AVC от Oneinchnales | L1
  • Элитный отряд: Враг среди нас / Tropa de Elite 2 - O Inimigo Agora Outro (2010) BDRemux 1080p от HDTracker
  • Враг Государства №1: Легенда / Lennemi public n°1 (2008) BDRip-AVC | iPad


    • Комментарии (0):

      Информация

      Информация

        Посетители, находящиеся в группе Гости, не могут оставлять комментарии в данной новости.

        ↓ Меню



        ↓ Опрос

        А Вы добавили сайт в закладки?
        Да
        Не


        Top 10 за месяц (Фильмы)